.
Авторизация | Регистрация
Хочешь лучшие торренты? Добавь свой email!
Добавить

Торрент скачать бесплатно

» » Чудо техники (2017.11.12) SATRip торрент скачать бесплатно




    Чудо техники (2017.11.12) SATRip торрент скачать бесплатно

    Опубликовал: Админ | Дата: 13-11-2017, 05:00 | Просмотров: 0

    Телекомпания: НТВ
    Жанр: Телепередача
    Ведущий: Сергей Малозёмов

    Описание

    Чудо техники — это доходчивый и интересный рассказ о новейших научных разработках, которые способны поменять или уже меняют нашу повседневную жизнь. Автор проекта — Сергей Малозёмов — хорошо знаком зрителям НТВ по репортажам программы Сегодня, касающимся новых технологий, гаджетов, медицины. Он в курсе последних научных разработок и одним из первых узнает о значимых изобретениях. Теперь обо всем, что происходит на передовой научно-технического прогресса, узнают и зрители НТВ. Новинки и открытия со всего мира создатели проекта подвергнут самому тщательному анализу: что-то протестируют на себе или специально приглашенных героях, узнают мнения экспертов, постараются проникнуть в саму суть вещей при помощи компьютерной графики и экспериментов в лаборатории. Когда можно будет попробовать мясо из пробирки и каково оно будет на вкус? Можно ли доверить уборку дома роботу и правда ли инфракрасный обогреватель лучше греет? Скоро ли нам будут доступны безболезненные уколы? Ответы на эти и многие другие вопросы – в каждом выпуске проекта Чудо техники.
    Релиз от: -=FOX=-
    Продолжительность: ~ 00: 39: 19
    Качество видео: SATRip
    Субтитры: Отсутствуют
    Видео: MPEG4, XviD, 720x448 (1.607), 25.000 fps, 1 800 Kbps (0.223 bit/pixel)
    Аудио: MP3, 48.0 KHz, 2 ch, 128 Kbps, CBR
    Код: выделить все
    Общее
    Полное имя : D:[1]Чудо техникиЧудо техники (2017.11.12).avi
    Формат : AVI
    Формат/Информация : Audio Video Interleave
    Размер файла : 545 Мбайт
    Продолжительность : 39 м.
    Общий поток : 1938 Кбит/сек
    Программа кодирования : VirtualDubMod 1.5.10.3 |www.virtualdub-fr.org|| (build 2550/release)
    Библиотека кодирования : VirtualDubMod build 2550/release
    Видео
    Идентификатор : 0
    Формат : MPEG-4 Visual
    Профиль формата : Advanced Simple@L5
    Параметр BVOP формата : 2
    Параметр QPel формата : Нет
    Параметр GMC формата : Без точки перехода
    Параметр матрицы формата : Default (MPEG)
    Идентификатор кодека : XVID
    Идентификатор кодека/Подсказка : XviD
    Продолжительность : 39 м.
    Битрейт : 1800 Кбит/сек
    Ширина : 720 пикселей
    Высота : 448 пикселей
    Соотношение сторон : 16:10
    Частота кадров : 25, 000 кадров/сек
    Цветовое пространство : YUV
    Субдискретизация насыщенности : 4:2:0
    Битовая глубина : 8 бит
    Тип развёртки : Прогрессивная
    Метод сжатия : С потерями
    Бит/(Пиксели*Кадры) : 0.223
    Размер потока : 506 Мбайт (93%)
    Библиотека кодирования : XviD 73
    Аудио
    Идентификатор : 1
    Формат : MPEG Audio
    Версия формата : Version 1
    Профиль формата : Layer 3
    Идентификатор кодека : 55
    Идентификатор кодека/Подсказка : MP3
    Продолжительность : 39 м.
    Вид битрейта : Постоянный
    Битрейт : 128 Кбит/сек
    Каналы : 2 канала
    Частота : 48, 0 КГц
    Метод сжатия : С потерями
    Размер потока : 36, 0 Мбайт (7%)
    Выравнивание : Соединение по промежуткам
    Продолжительность промежутка : 40 мс. (1, 00 видеокадр)
    Время предзагрузки промежутка : 504 мс.
    Библиотека кодирования : LAME3.99r
    Настройки программы : -m s -V 4 -q 2 -lowpass 17 -b 128
    - Разделочные доски. Опасно ли пользоваться деревянными? Почему нельзя резать мясо и овощи на одной доске? Стоит ли тратиться на антибактериальные? И какая связь между разделочными досками и сальмонеллой? Мы провели тесты и получили данные лабораторных исследований.
    - Тайны явлений и вещей: землетрясения. Каково это - оказаться в эпицентре катастрофы? Почему ученые до сих пор не могут научиться точно предсказывать землетрясения? В какую комнату прятаться, если трясет? И что придумали инженеры, чтобы защитить здания от разрушений?
    - Сумка-тележка с 6 колесами - правда ли выдерживает до тридцати килограммов и хорошо ездит? Проверим на одной из самых длинных лестниц России - в Нижнем Новгороде. Наполнитель для кошачьего туалета - действительно сможет определить состояние здоровья питомца? А также - потолочный обогреватель. Согреет ли в холода? Что из этого чудо, а что - нет.
    - Необычная методика преподавания уроков труда. Расскажем историю Умельца недели Николая Фролова!
    Все самое интересное — в программе Чудо техники.

    Скриншоты для ознакомления



    Все одноименные релизы в Клубе
    Время раздачи: 24/7. До первых 5 скачавших.


    Чудо техники (2017.11.12) SATRip
    загрузка...
    Рейтинг →
     (голосов: 1, оценка 5/5, голосовать можно 1 раз )

    Другие торренты по теме:

  • Чудо техники (2014.09.28) SATRip
  • Чудо техники (2014.10.05) SATRip скачать через торрент бесплатно
  • Чудо техники (2014.10.12) SATRip
  • Чудо техники (2014.10.19) SATRip скачать через торрент бесплатно
  • Чудо техники (2014.10.26) SATRip скачать через торрент бесплатно
  • Чудо техники (2014.10.26) SATRip скачать через торрент бесплатно
  • Чудо техники (2014.11.02) SATRip скачать через торрент бесплатно
  • Чудо техники (2014.11.09) SATRip скачать через торрент бесплатно


    • Комментарии (0):

      Информация

      Информация

        Посетители, находящиеся в группе Гости, не могут оставлять комментарии в данной новости.

        ↓ Меню




        ↓ Опрос

        Вы добавили сайт в закладки?
        Да
        Нет


        Top 10 за месяц (Передачи)

        Михаил Задорнов. Лучшее - сборник лучших эстрадных номеров Михаила Задорнова за 30 лет (1984-2014) WEBRip скачать через торрент бесплатно

        (скачиваний: 7)
        Журнал | Всему свету по совету №1 (228) (январь 2017) [PDF]

        (скачиваний: 6)
        Фигурное катание. Гран-при 2017-2018. 3-й Этап. Кубок Китая 2017. Пекин (Китай). 2 День (04.11.2017) HDTV [H.264 / 1080i-LQ]

        (скачиваний: 6)
        Трэвис Хэйли. Адаптивный автомат Калашникова / Travis Haley: Adaptive Kalash (2011) WEBRip [720p-LQ] скачать через торрент бесплатно

        (скачиваний: 5)
        Святитель Феофан Затворник | Собрание сочинений [69 Томов] (2008) [FB2]

        (скачиваний: 5)
        Орел и решка. Перезагрузка (2017.11.07) WEB-DL [H.264 / 720p-LQ] (сезон 14: Ибица. Испания)

        (скачиваний: 4)
        Николай Ягодкин | Технология постановки навыков (2013) PCRec [H.264]

        (скачиваний: 4)
        Журнал | Рецепты на бис. Спецвыпуск №1 (19) (2017) [PDF]

        (скачиваний: 4)
        Айрэн По, Джули По | Нумерология, как профессия. Мы из матрицы. Книга 1 (2016) [DJVU]

        (скачиваний: 4)
        Comedy Club (2010-2014) SATRip / WEB-DLRip [Выпуск: 201-363] скачать через торрент бесплатно

        (скачиваний: 4)