.
Авторизация | Регистрация
Хочешь лучшие торренты? Добавь свой email!
Добавить

Торрент скачать бесплатно

» » Орел и решка. Рай и ад-2 (2017.11.12) WEB-DL [H.264 / 1080p-LQ] (сезон 15: Фортелеза. Бразилия) торрент скачать бесплатно




    Орел и решка. Рай и ад-2 (2017.11.12) WEB-DL [H.264 / 1080p-LQ] (сезон 15: Фортелеза. Бразилия) торрент скачать бесплатно

    Опубликовал: Админ | Дата: 13-11-2017, 05:00 | Просмотров: 0

    Телекомпания: ИНТЕР
    Жанр: Реалити-шоу, путешествия, география, познавательный
    Ведущий: Регина Тодоренко и Натали Неведрова

    Описание

    Команда проекта продолжит свои райско-адские путешествия по миру, но во второй части Рая и ада зрителей ждут изменения.
    Во-первых, немного поменяется концепция: теперь прекрасное и ужасное будут искать в каждом исследуемом городе. Во-вторых, в 15-м сезон любимого сериалае вместо ушедшей в отпуск Леси Никитюк путешествовать с Региной Тодоренко будет новый ведущий. Его имя поклонники проекта узнают совсем скоро!
    Еще один сюрприз - первые выпуски 15-го сезон любимого сериалаа посвящены особенностям безвизового режима для украинцев. Куда можно и нужно поехать, где лучше наслаждаться отдыхом, чего бояться и опасаться в путешествиях - все это в новом сезон любимого сериалае проекта Орел и решка. Рай и ад 2.

    Возраст: 12+ (зрителям, достигшим 12 лет)
    Релиз от: svlesin
    Продолжительность: ~ 00: 43: 57
    Качество видео: WEB-DL
    Субтитры: Отсутствуют
    Видео: AVC, 1920x1080 (16: 9), 25.000 fps, 3 748 Kbps (0.072 bit/pixel)
    Аудио: AC-3, 44.1 KHz, 2 ch, 192 Kbps, CBR
    Код: выделить все
    Общее
    Уникальный идентификатор : 192183119562156430195800553277383345806 (0x90951F5AA7F04FCD8B118EB87821868E)
    Полное имя : D:[1]Орел и решкаОрел и решка. Рай и ад - 2 (2017.11.12)_1080 - Фортелеза_Бразилия.mkv
    Формат : Matroska
    Версия формата : Version 4/Version 2
    Размер файла : 1, 23 Гбайт
    Продолжительность : 43 м.
    Общий поток : 4020 Кбит/сек
    Название фильма : Орел и решка. Рай и ад - 2 (2017.11.12)_1080 - Фортелеза_Бразилия_nnm-club.name
    Дата кодирования : UTC 2017-11-12 11:47:46
    Программа кодирования : mkvmerge v17.0.0 (\'Be Ur Friend\') 64-bit
    Библиотека кодирования : libebml v1.3.5 + libmatroska v1.4.8
    Attachements : nnm-club.name.png
    DURATION : 00:43:57.323000000
    NUMBER_OF_FRAMES : 75720
    NUMBER_OF_BYTES : 63295738
    _STATISTICS_WRITING_APP : mkvmerge v17.0.0 (\'Be Ur Friend\') 64-bit
    _STATISTICS_WRITING_DATE_UTC : 2017-11-12 11:47:46
    _STATISTICS_TAGS : BPS DURATION NUMBER_OF_FRAMES NUMBER_OF_BYTES
    Видео
    Идентификатор : 1
    Формат : AVC
    Формат/Информация : Advanced Video Codec
    Профиль формата : High@L4
    Параметр CABAC формата : Да
    Параметр ReFrames формата : 2 кадра
    Идентификатор кодека : V_MPEG4/ISO/AVC
    Продолжительность : 43 м.
    Битрейт : 3748 Кбит/сек
    Ширина : 1920 пикселей
    Высота : 1080 пикселей
    Соотношение сторон : 16:9
    Режим частоты кадров : Постоянный
    Частота кадров : 25, 000 кадров/сек
    Цветовое пространство : YUV
    Субдискретизация насыщенности : 4:2:0
    Битовая глубина : 8 бит
    Тип развёртки : Прогрессивная
    Бит/(Пиксели*Кадры) : 0.072
    Размер потока : 1, 15 Гбайт (93%)
    Default : Да
    Forced : Нет
    Цветовой диапазон : Limited
    Основные цвета : BT.709
    Характеристики трансфера : BT.709
    Коэффициенты матрицы : BT.709
    Аудио
    Идентификатор : 2
    Формат : AC-3
    Формат/Информация : Audio Coding 3
    Расширение режима : CM (complete main)
    Параметр Endianness формата : Big
    Идентификатор кодека : A_AC3
    Продолжительность : 43 м.
    Вид битрейта : Постоянный
    Битрейт : 192 Кбит/сек
    Каналы : 2 канала
    Расположение каналов : Front: L R
    Частота : 44, 1 КГц
    Битовая глубина : 16 бит
    Метод сжатия : С потерями
    Размер потока : 60, 4 Мбайт (5%)
    Default : Да
    Forced : Нет
    Орёл и Решка. Рай и Ад-2 в самом горячем и страстном городе Бразилии - Форталеза! Форталеза - это километры песчаных пляжей, прохладный бриз Атлантического океана и адреналиновые развлечения! Здесь Регина Тодоренко упала с высоты 15-этажного дома...ну...если быть точными, в аквапарке Beach Park прокатилась на Инсано (Insano) - уже не самой высокой, но до сих пор самой безумной водной горке в мире. А Натали Неведрова искала покой и блаженство в Lagoa do Paraíso, что в переводе означает Райская лагуна! Форталеза - это немного не та Бразилия, к который мы привыкли...Хотя...что вам рассказывать? Смотрите сами!

    Скриншоты для ознакомления



    Все одноименные релизы в Клубе
    Время раздачи: 24/7. До первых 5 скачавших.


    Орел и решка. Рай и ад-2 (2017.11.12) WEB-DL [H.264/1080p-LQ] (сезон 15: Фортелеза. Бразилия)
    загрузка...
    Рейтинг →
     (голосов: 1, оценка 3/5, голосовать можно 1 раз )

    Другие торренты по теме:

  • Орел и решка. Сезон №1. Шопинг. Стокгольм (2014.09.23) SATRip
  • Орел и решка. Сезон №9. Неизведанная Европа. Роттердам (2014.09.28) SATRip
  • Орел и решка. Сезон №1. Шопинг. Амман (2014.09.30) SATRip скачать через торрент бесплатно
  • Орел и решка. Сезон №9. Неизведанная Европа. Страна Басков (Испания) (2014.10.05) SATRip скачать через торрент бесплатно
  • Орел и решка. Сезон №9. Неизведанная Европа. Сараево (2014.10.06) SATRip скачать через торрент бесплатно
  • Орел и решка (1-8 сезон: 1-134 выпуски, Неизданное 1-3 выпуск) (2011 - 2014) SATRip, HDTVRip скачать через торрент бесплатно
  • Орел и решка. Сезон №1. Шопинг. Каир (2014.10.07) SATRip скачать через торрент бесплатно
  • Орел и решка. Сезон №9. Неизведанная Европа. Сарагоса (2014.10.19) WEBRip


    • Комментарии (0):

      Информация

      Информация

        Посетители, находящиеся в группе Гости, не могут оставлять комментарии в данной новости.

        ↓ Меню




        ↓ Опрос

        Вы добавили сайт в закладки?
        Да
        Нет


        Top 10 за месяц (Передачи)

        Алексей Широков, Александр Шапочкин | Попаданец 2.0 (2017) [FB2]

        (скачиваний: 9)
        Михаил Задорнов. Лучшее - сборник лучших эстрадных номеров Михаила Задорнова за 30 лет (1984-2014) WEBRip скачать через торрент бесплатно

        (скачиваний: 8)
        Фигурное катание. Гран-при 2017-2018. 3-й Этап. Кубок Китая 2017. Пекин (Китай). 2 День (04.11.2017) HDTV [H.264 / 1080i-LQ]

        (скачиваний: 8)
        Журнал | Всему свету по совету №1 (228) (январь 2017) [PDF]

        (скачиваний: 6)
        Орел и решка. Перезагрузка (2017.11.07) WEB-DL [H.264 / 720p-LQ] (сезон 14: Ибица. Испания)

        (скачиваний: 6)
        Трэвис Хэйли. Адаптивный автомат Калашникова / Travis Haley: Adaptive Kalash (2011) WEBRip [720p-LQ] скачать через торрент бесплатно

        (скачиваний: 5)
        Святитель Феофан Затворник | Собрание сочинений [69 Томов] (2008) [FB2]

        (скачиваний: 5)
        Comedy Club (2010-2014) SATRip / WEB-DLRip [Выпуск: 201-363] скачать через торрент бесплатно

        (скачиваний: 4)
        Орел и решка. Перезагрузка (2017.10.30) WEB-DL [H.264 / 720p-LQ] (сезон 14: Барселона. Испания)

        (скачиваний: 4)
        Айрэн По, Джули По | Нумерология, как профессия. Мы из матрицы. Книга 1 (2016) [DJVU]

        (скачиваний: 4)