.
Авторизация | Регистрация
Хочешь лучшие торренты? Добавь свой email!
Добавить

Торрент скачать бесплатно

» » Фигурное катание. Юниорский Гран-при 2017—2018. 3-й Этап. Кубок Риги 2017. Рига (Латвия). 1-й День (07.09.2017) WEB-DL [H.264 / 720p-LQ] [EN] торрент скачать бесплатно




    Фигурное катание. Юниорский Гран-при 2017—2018. 3-й Этап. Кубок Риги 2017. Рига (Латвия). 1-й День (07.09.2017) WEB-DL [H.264 / 720p-LQ] [EN] торрент скачать бесплатно

    Опубликовал: Админ | Дата: 12-11-2017, 05:00 | Просмотров: 0

    Телекомпания: ISU TV
    Жанр: Спорт

    Описание
    07 сентября 2017 года, четверг.
    Серия Гран-при по фигурному катанию сезон любимого сериалаа 2017—2018 года среди юниоров.
    Riga Cup 2017 — 3-й Этап Гран-при среди юниоров. Рига (Латвия).
    1-й День:
    10: 45 (мск.) — Девушки. Короткая программа
    15: 55 (мск.) — Юниоры Спортивные пары. Короткая программа
    18: 10 (мск.) — Юноши. Короткая программа
    Стадион: Спортивный центр Volvo (Рига, Латвия)
    Продолжительность: 01: 32: 01—03: 56: 31
    Качество видео: WEB-DL
    Язык озвучки: Английский
    Субтитры: отсутствуют
    Видео: AVC/H.264, 1280x720 (16: 9), ~1441—1620 Kbps, 29.97 fps
    Аудио: AAC, 2 ch, ~126 Kbps

    Общее
    Уникальный идентификатор : 181906835038367802443834872163156673820 (0x88D9FB68DE3BA2E697D71B0C381CC51C)
    Полное имя : C: UsersADMINDownloadsVideoФигурное катание3. ISU Junior Grand Prix. Riga Cup 2017(07.09.2017)_ISU Junior Grand Prix.3.Riga Cup 2017.Riga(LAT). 1 Day2. ISU Junior Grand Prix.3.Riga Cup 2017. Junior Pairs SP.mkv
    Формат : Matroska
    Версия формата : Version 4/Version 2
    Размер файла : 1, 12 Гбайт
    Продолжительность : 1 ч. 32 м.
    Общий поток : 1748 Кбит/сек
    Дата кодирования : UTC 2017-11-03 06: 53: 18
    Программа кодирования : mkvmerge v17.0.0 (\'Be Ur Friend\') 32-bit
    Библиотека кодирования : libebml v1.3.5 + libmatroska v1.4.8
    Видео
    Идентификатор : 1
    Формат : AVC
    Формат/Информация : Advanced Video Codec
    Профиль формата : Main@L3.1
    Настройки формата : CABAC/3 Ref Frames
    Параметр CABAC формата : Да
    Параметр RefFrames формата : 3 кадра
    Идентификатор кодека : V_MPEG4/ISO/AVC
    Продолжительность : 1 ч. 32 м.
    Битрейт : 1620 Кбит/сек
    Ширина : 1280 пикселей
    Высота : 720 пикселей
    Соотношение сторон : 16: 9
    Режим частоты кадров : Постоянный
    Частота кадров : 29, 970 (29970/1000) кадров/сек
    Цветовое пространство : YUV
    Субдискретизация насыщенности : 4: 2: 0
    Битовая глубина : 8 бит
    Тип развёртки : Прогрессивная
    Бит/(Пиксели*Кадры) : 0.059
    Размер потока : 1, 04 Гбайт (93%)
    Default : Да
    Forced : Нет
    Цветовой диапазон : Limited
    Основные цвета : BT.709
    Характеристики трансфера : BT.709
    Коэффициенты матрицы : BT.709
    Аудио
    Идентификатор : 2
    Формат : AAC
    Формат/Информация : Advanced Audio Codec
    Профиль формата : LC
    Идентификатор кодека : A_AAC-2
    Продолжительность : 1 ч. 32 м.
    Битрейт : 126 Кбит/сек
    Каналы : 2 канала
    Расположение каналов : Front: L R
    Частота : 44, 1 КГц
    Частота кадров : 43, 066 кадра/сек (1024 SPF)
    Метод сжатия : С потерями
    Размер потока : 82, 7 Мбайт (7%)
    Язык : English
    Default : Да
    Forced : Нет

    Скриншоты для ознакомления



    Все одноименные релизы в Клубе
    Время раздачи: 24/7 (около 1 месяца)


    Фигурное катание. Юниорский Гран-при 2017—2018. 3-й Этап. Кубок Риги 2017. Рига (Латвия). 1-й День (07.09.2017) WEB-DL [H.264/720p-LQ] [EN]
    загрузка...
    Рейтинг →
     (голосов: 1, оценка 4/5, голосовать можно 1 раз )

    Другие торренты по теме:

  • Фигурное катание. Чемпионат России 2015. Екатеринбург (Россия). Показательные выступления (27.12.2015) (2015) HDTVRip [H.264 / 720p-LQ] скачать через торрент бесплатно
  • Фигурное катание. Чемпионат России 2015. Екатеринбург (Россия). Женщины. Произвольная программа (26.12.2015) HDTVRip [H.264 / 720p-LQ] скачать через торрент бесплатно
  • Фигурное Катание. Чемпионат России 2015. Женщины. Короткая программа. (25.12.2015) HDTVRip [H.264 / 720p-LQ] скачать через торрент бесплатно
  • Фигурное катание. Чемпионат Европы 2016. Женщины. Короткая программа. (27.01.2016) HDTVRip [H.264 / 720p-LQ]
  • Фигурное катание. Чемпионат Европы 2016. Танцы. Короткая программа. (28.01.2016) HDTVRip [H.264 / 720p-LQ]
  • Фигурное катание. Чемпионат Европы 2016. Мужчины. Короткая программа. (27.01.2016) HDTVRip [H.264 / 720p-LQ]
  • Фигурное катание. Чемпионат Европы 2016. Мужчины. Произвольная программа. (28.01.2016) HDTVRip [H.264 / 720p-LQ]
  • Фигурное катание. Чемпионат Европы 2016. Пары. Короткая программа. (29.01.2016) HDTVRip [H.264 / 720p-LQ]


    • Комментарии (0):

      Информация

      Информация

        Посетители, находящиеся в группе Гости, не могут оставлять комментарии в данной новости.

        ↓ Меню




        ↓ Опрос

        Вы добавили сайт в закладки?
        Да
        Нет


        Top 10 за месяц (Передачи)

        Алексей Широков, Александр Шапочкин | Попаданец 2.0 (2017) [FB2]

        (скачиваний: 9)
        Михаил Задорнов. Лучшее - сборник лучших эстрадных номеров Михаила Задорнова за 30 лет (1984-2014) WEBRip скачать через торрент бесплатно

        (скачиваний: 8)
        Фигурное катание. Гран-при 2017-2018. 3-й Этап. Кубок Китая 2017. Пекин (Китай). 2 День (04.11.2017) HDTV [H.264 / 1080i-LQ]

        (скачиваний: 6)
        Орел и решка. Перезагрузка (2017.11.07) WEB-DL [H.264 / 720p-LQ] (сезон 14: Ибица. Испания)

        (скачиваний: 6)
        Журнал | Всему свету по совету №1 (228) (январь 2017) [PDF]

        (скачиваний: 6)
        Трэвис Хэйли. Адаптивный автомат Калашникова / Travis Haley: Adaptive Kalash (2011) WEBRip [720p-LQ] скачать через торрент бесплатно

        (скачиваний: 5)
        Святитель Феофан Затворник | Собрание сочинений [69 Томов] (2008) [FB2]

        (скачиваний: 5)
        Горная бригада (2014) HDTVRip [720p-LQ] [Серии: 1-12 из 12] скачать через торрент бесплатно

        (скачиваний: 4)
        Айрэн По, Джули По | Нумерология, как профессия. Мы из матрицы. Книга 1 (2016) [DJVU]

        (скачиваний: 4)
        Журнал | Рецепты на бис. Спецвыпуск №1 (19) (2017) [PDF]

        (скачиваний: 4)