.
Авторизация | Регистрация
Хочешь лучшие торренты? Добавь свой email!
Добавить

Торрент скачать бесплатно

» » Бобслей. Кубок мира 2017-2018. 1-й Этап. Лейк-Плэсид (США). Женщины (09.11.2017) WEB-DL [H.264 / 1080p-LQ] [EN] торрент скачать бесплатно




    Бобслей. Кубок мира 2017-2018. 1-й Этап. Лейк-Плэсид (США). Женщины (09.11.2017) WEB-DL [H.264 / 1080p-LQ] [EN] торрент скачать бесплатно

    Опубликовал: Админ | Дата: 12-11-2017, 05:00 | Просмотров: 0

    Телекомпания: IBSF TV
    Жанр: Спорт

    Описание
    09 ноября 2017 года, четверг. 20: 30 МСК
    Бобслей. Кубок мира 2017-2018. 1-й Этап. Лейк-Плэсид (США)
    Женщины. 1-я и 2-я попытка
    Стадион: Олимпийская санно-бобслейная трасса (Лейк-Плэсид, США)
    Продолжительность: 01: 51: 43
    Качество видео: WEB-DL
    Язык озвучки: Английский
    Субтитры: отсутствуют
    Видео: AVC/H.264, 1920x1080 (16: 9), ~3754 Kbps
    Аудио: AAC, 2 ch, ~126 Kbps

    Общее
    Уникальный идентификатор : 230424312024462214195644697331664120292 (0xAD5A1BB5E590A283B1285C0B9A6769E4)
    Полное имя : F: SPORTБобслей(09.11.2017)_IBSF WC 2017-2018.1.Lake Placid(USA).2. Womens Bobsleigh(Full).mkv
    Формат : Matroska
    Версия формата : Version 4/Version 2
    Размер файла : 3, 03 Гбайт
    Продолжительность : 1 ч. 51 м.
    Общий поток : 3882 Кбит/сек
    Название фильма : BMW IBSF World Cup 2017-2018.1. Lake Placid (USA)
    Дата кодирования : UTC 2017-11-10 14: 48: 51
    Программа кодирования : mkvmerge v17.0.0 (\'Be Ur Friend\') 32-bit
    Библиотека кодирования : libebml v1.3.5 + libmatroska v1.4.8
    Видео
    Идентификатор : 1
    Формат : AVC
    Формат/Информация : Advanced Video Codec
    Профиль формата : High@L4
    Настройки формата : CABAC/2 Ref Frames
    Параметр CABAC формата : Да
    Параметр RefFrames формата : 2 кадра
    Идентификатор кодека : V_MPEG4/ISO/AVC
    Продолжительность : 1 ч. 51 м.
    Битрейт : 3754 Кбит/сек
    Ширина : 1920 пикселей
    Высота : 1080 пикселей
    Соотношение сторон : 16: 9
    Режим частоты кадров : Постоянный
    Частота кадров : 25, 000 кадров/сек
    Цветовое пространство : YUV
    Субдискретизация насыщенности : 4: 2: 0
    Битовая глубина : 8 бит
    Тип развёртки : Прогрессивная
    Бит/(Пиксели*Кадры) : 0.072
    Размер потока : 2, 93 Гбайт (97%)
    Default : Да
    Forced : Нет
    Цветовой диапазон : Limited
    Основные цвета : BT.709
    Характеристики трансфера : BT.709
    Коэффициенты матрицы : BT.709
    Аудио
    Идентификатор : 2
    Формат : AAC
    Формат/Информация : Advanced Audio Codec
    Профиль формата : LC
    Идентификатор кодека : A_AAC-2
    Продолжительность : 1 ч. 51 м.
    Битрейт : 126 Кбит/сек
    Каналы : 2 канала
    Расположение каналов : Front: L R
    Частота : 44, 1 КГц
    Частота кадров : 43, 066 кадра/сек (1024 SPF)
    Метод сжатия : С потерями
    Размер потока : 100 Мбайт (3%)
    Язык : English
    Default : Да
    Forced : Нет

    Скриншоты для ознакомления



    Все одноименные релизы в Клубе
    Время раздачи: 24/7. (Около 1 месяца.)


    Бобслей. Кубок мира 2017-2018. 1-й Этап. Лейк-Плэсид (США). Женщины (09.11.2017) WEB-DL [H.264/1080p-LQ] [EN]
    загрузка...
    Рейтинг →
     (голосов: 1, оценка 4/5, голосовать можно 1 раз )

    Другие торренты по теме:

  • Бобслей. Кубок мира 2017-2018. 1-й Этап. Лейк-Плэсид (США). Женщины (09.11.2017) WEB-DLRip
  • Бобслей. Кубок мира 2017-2018. 2-й Этап. Лейк-Плэсид (США). Мужчины. Двойки (10.11.2017) WEB-DL [H.264 / 1080p-LQ] [EN]
  • Бобслей. Кубок мира 2016-2017. 1-й Этап. Уистлер (Канадa). Мужчины. Четверки. 1-я и 2-я попытка (03.12.2016) WEB-DL [H.264 / 720p-LQ]
  • Бобслей. Кубок мира 2016-2017. 1-й Этап. Уистлер (Канадa). Женщины. 1-я и 2-я попытка (03.12.2016) WEB-DL [H.264 / 720p-LQ]
  • Бобслей. Кубок мира 2016-2017. 1-й Этап. Уистлер (Канадa). Мужчины. Двойки. 1-я и 2-я попытка (02.12.2016) WEB-DL [H.264 / 720p-LQ]
  • Бобслей. Кубок мира 2016-2017. 7-й Этап. Иглс (Австрия). Мужчины. Четверки (05.02.2017) WEB-DL [H.264 / 720p-LQ]
  • Бобслей. Кубок мира 2016-2017. 7-й Этап. Иглс (Австрия). Женщины. Двойки 2-я попытка (04.02.2017) WEB-DL [H.264 / 720p-LQ]
  • Бобслей. Кубок мира 2016-2017. 7-й Этап. Иглс (Австрия). Женщины. Двойки 1-я попытка (04.02.2017) WEB-DL [H.264 / 1080p-LQ][EN]


    • Комментарии (0):

      Информация

      Информация

        Посетители, находящиеся в группе Гости, не могут оставлять комментарии в данной новости.

        ↓ Меню




        ↓ Опрос

        Вы добавили сайт в закладки?
        Да
        Нет


        Top 10 за месяц (Передачи)

        Михаил Задорнов. Лучшее - сборник лучших эстрадных номеров Михаила Задорнова за 30 лет (1984-2014) WEBRip скачать через торрент бесплатно

        (скачиваний: 8)
        Журнал | Всему свету по совету №1 (228) (январь 2017) [PDF]

        (скачиваний: 6)
        Фигурное катание. Гран-при 2017-2018. 3-й Этап. Кубок Китая 2017. Пекин (Китай). 2 День (04.11.2017) HDTV [H.264 / 1080i-LQ]

        (скачиваний: 6)
        Святитель Феофан Затворник | Собрание сочинений [69 Томов] (2008) [FB2]

        (скачиваний: 5)
        Трэвис Хэйли. Адаптивный автомат Калашникова / Travis Haley: Adaptive Kalash (2011) WEBRip [720p-LQ] скачать через торрент бесплатно

        (скачиваний: 5)
        Горная бригада (2014) HDTVRip [720p-LQ] [Серии: 1-12 из 12] скачать через торрент бесплатно

        (скачиваний: 4)
        Николай Ягодкин | Технология постановки навыков (2013) PCRec [H.264]

        (скачиваний: 4)
        Comedy Club (2010-2014) SATRip / WEB-DLRip [Выпуск: 201-363] скачать через торрент бесплатно

        (скачиваний: 4)
        Айрэн По, Джули По | Нумерология, как профессия. Мы из матрицы. Книга 1 (2016) [DJVU]

        (скачиваний: 4)
        Журнал | Рецепты на бис. Спецвыпуск №1 (19) (2017) [PDF]

        (скачиваний: 4)