.
Авторизация | Регистрация
Хочешь лучшие торренты? Добавь свой email!
Добавить

Торрент скачать бесплатно

» » Конькобежный спорт. Кубок мира 2017-2018. 1-й Этап. Херенвеен (Норвегия). 1-й день соревнований (10.11.2017) IPTV [H.264 / 1080p-LQ] торрент скачать бесплатно




    Конькобежный спорт. Кубок мира 2017-2018. 1-й Этап. Херенвеен (Норвегия). 1-й день соревнований (10.11.2017) IPTV [H.264 / 1080p-LQ] торрент скачать бесплатно

    Опубликовал: Админ | Дата: 12-11-2017, 05:00 | Просмотров: 0

    Телекомпания: Матч! Арена HD
    Жанр: Спорт
    Комментаторы: Игорь Швецов, Варвара Барышева

    Описание
    10 ноября 2017, пятница
    Кубок мира 2017-2018. 1-й Этап. Херенвен (Нидерланды)
    1-й день соревнований:
    1. Женщины - 500 м 1-й забег
    2. Мужчины - Командная гонка преследования
    3. Женщины - Командная гонка преследования
    4. Мужчины - 500 м 1-й забег
    Стадион: Тиалф Арена (Херенвен, Нидерланды)
    Релиз от: vobosha
    Продолжительность: 01: 52: 32
    Качество видео: IPTV
    Язык озвучки: Русский
    Субтитры: отсутствуют
    Видео: AVC/H.264, 1920x1080 (16: 9), ~4054 Kbps
    Аудио: AAC, 2 ch, 48 kHz, ~128 Kbps

    Общее
    Уникальный идентификатор : 187715243027942350118689113423834590169 (0x8D38A4089EF1CF878417E82332752BD9)
    Полное имя : F: SPORTКоньки(10.11.2017)_ISU WC 17-18 Speed Skating.1.Heerenveen(NED). Day 1.mkv
    Формат : Matroska
    Версия формата : Version 4/Version 2
    Размер файла : 3, 29 Гбайт
    Продолжительность : 1 ч. 52 м.
    Общий поток : 4184 Кбит/сек
    Дата кодирования : UTC 2017-11-11 01: 22: 49
    Программа кодирования : mkvmerge v17.0.0 (\'Be Ur Friend\') 32-bit
    Библиотека кодирования : libebml v1.3.5 + libmatroska v1.4.8
    Видео
    Идентификатор : 1
    Формат : AVC
    Формат/Информация : Advanced Video Codec
    Профиль формата : High@L4
    Настройки формата : CABAC/4 Ref Frames
    Параметр CABAC формата : Да
    Параметр RefFrames формата : 4 кадра
    Идентификатор кодека : V_MPEG4/ISO/AVC
    Продолжительность : 1 ч. 52 м.
    Битрейт : 4054 Кбит/сек
    Ширина : 1920 пикселей
    Высота : 1080 пикселей
    Соотношение сторон : 16: 9
    Режим частоты кадров : Постоянный
    Частота кадров : 25, 000 кадров/сек
    Стандарт вещания : Component
    Цветовое пространство : YUV
    Субдискретизация насыщенности : 4: 2: 0
    Битовая глубина : 8 бит
    Тип развёртки : Прогрессивная
    Бит/(Пиксели*Кадры) : 0.078
    Размер потока : 3, 19 Гбайт (97%)
    Default : Да
    Forced : Нет
    Цветовой диапазон : Limited
    Аудио
    Идентификатор : 2
    Формат : AAC
    Формат/Информация : Advanced Audio Codec
    Профиль формата : LC
    Идентификатор кодека : A_AAC-2
    Продолжительность : 1 ч. 52 м.
    Битрейт : 128 Кбит/сек
    Каналы : 2 канала
    Расположение каналов : Front: L R
    Частота : 48, 0 КГц
    Частота кадров : 46, 875 кадров/сек (1024 SPF)
    Метод сжатия : С потерями
    Размер потока : 103 Мбайт (3%)
    Язык : Russian
    Default : Да
    Forced : Нет

    Скриншоты для ознакомления



    Все одноименные релизы в Клубе
    Время раздачи: 24/7 (около 1 месяца)


    Конькобежный спорт. Кубок мира 2017-2018. 1-й Этап. Херенвеен (Норвегия). 1-й день соревнований (10.11.2017) IPTV [H.264/1080p-LQ]
    загрузка...
    Рейтинг →
     (голосов: 1, оценка 5/5, голосовать можно 1 раз )

    Другие торренты по теме:

  • Конькобежный спорт. Кубок мира 2017-2018. 1-й Этап. Херенвен (Нидерланды). 3-й день соревнований (12.11.2017) IPTV [H.264 / 1080p-LQ]
  • Конькобежный спорт. Кубок мира 2017-2018. 1-й Этап. Херенвен (Нидерланды). 2-й день соревнований (11.11.2017) IPTV [H.264 / 1080p-LQ]
  • Конькобежный спорт. Кубок Мира 2016-2017. 1-й Этап. Харбин (Китай). 3-й день соревнований (13.11.2016) WEB-DL [H.264 / 720p-LQ]
  • Конькобежный спорт. Кубок Мира 2016-2017. 1-й Этап. Харбин (Китай). 2-й день соревнований (12.11.2016) WEB-DL [H.264 / 720p-LQ]
  • Конькобежный спорт. Кубок Мира 2016-2017. 1-й Этап. Харбин (Китай). 1-й день соревнований (11.11.2016) WEB-DL [H.264 / 720p-LQ]
  • Конькобежный спорт. Кубок Мира 2016-2017. 4-й Этап. Херенвен (Нидерланды). 3-й день соревнований (11.12.2016) IPTVRip [H.264 / 1080p-LQ]
  • Конькобежный спорт. Кубок Мира 2016-2017. 4-й Этап. Херенвен (Нидерланды). 2-й день соревнований (10.12.2016) WEB-DL [H.264 / 720p-LQ]
  • Конькобежный спорт. Кубок Мира 2016-2017. 4-й Этап. Херенвен (Нидерланды). 1-й день соревнований (09.12.2016) IPTVRip [H.264 / 1080p-LQ]


    • Комментарии (0):

      Информация

      Информация

        Посетители, находящиеся в группе Гости, не могут оставлять комментарии в данной новости.

        ↓ Меню




        ↓ Опрос

        Вы добавили сайт в закладки?
        Да
        Нет


        Top 10 за месяц (Передачи)

        Михаил Задорнов. Лучшее - сборник лучших эстрадных номеров Михаила Задорнова за 30 лет (1984-2014) WEBRip скачать через торрент бесплатно

        (скачиваний: 7)
        Журнал | Всему свету по совету №1 (228) (январь 2017) [PDF]

        (скачиваний: 6)
        Фигурное катание. Гран-при 2017-2018. 3-й Этап. Кубок Китая 2017. Пекин (Китай). 2 День (04.11.2017) HDTV [H.264 / 1080i-LQ]

        (скачиваний: 6)
        Трэвис Хэйли. Адаптивный автомат Калашникова / Travis Haley: Adaptive Kalash (2011) WEBRip [720p-LQ] скачать через торрент бесплатно

        (скачиваний: 5)
        Святитель Феофан Затворник | Собрание сочинений [69 Томов] (2008) [FB2]

        (скачиваний: 5)
        Орел и решка. Перезагрузка (2017.11.07) WEB-DL [H.264 / 720p-LQ] (сезон 14: Ибица. Испания)

        (скачиваний: 4)
        Николай Ягодкин | Технология постановки навыков (2013) PCRec [H.264]

        (скачиваний: 4)
        Журнал | Рецепты на бис. Спецвыпуск №1 (19) (2017) [PDF]

        (скачиваний: 4)
        Айрэн По, Джули По | Нумерология, как профессия. Мы из матрицы. Книга 1 (2016) [DJVU]

        (скачиваний: 4)
        Comedy Club (2010-2014) SATRip / WEB-DLRip [Выпуск: 201-363] скачать через торрент бесплатно

        (скачиваний: 4)