.
Авторизация | Регистрация
Хочешь лучшие торренты? Добавь свой email!
Добавить

Торрент скачать бесплатно

» » Comedy Woman (2017.11.10) HDTV [H.264 / 1080i] торрент скачать бесплатно




    Comedy Woman (2017.11.10) HDTV [H.264 / 1080i] торрент скачать бесплатно

    Опубликовал: Админ | Дата: 12-11-2017, 05:00 | Просмотров: 0

    Телекомпания: ТНТ
    Жанр: ТВ-Шоу, юмор
    Участники: Наталья Еприкян, Екатерина Скулкина, Екатерина Варнава, Мария Кравченко, Полина Сибагатуллина, Татьяна Морозова, Надежда Сысоева, Надежда Ангарская, Марина Федункив.

    Описание

    Развлекательное шоу, в котором пресловутая женская логика оказывается как нельзя кстати. Девушки с выдающимся юмором и не менее выдающимися формами не позволят заскучать самому закоренелому снобу и накажут смехом даже законченного шовиниста. Сomedy Woman - место, в котором приятно побывать и не стыдно об этом вспомнить! Особенно зажигательные танцы, очень смешные шутки, а также жизненные истории, в которых каждая дама точно узнает себя и своих подруг.
    Релиз от: 25Kuzmich
    Продолжительность: ~ 00: 48: 38
    Качество видео: HDTV
    Субтитры: Отсутствуют
    Видео: AVC, 1920x1080 (16: 9), 25.000 fps, 9 085 Kbps (0.175 bit/pixel)
    Аудио: MP2, 48.0 KHz, 2 ch, 192 Kbps, CBR
    Код: выделить все
    Общее
    Идентификатор : 1 (0x1)
    Полное имя : D:[1]Comedy WomanComedy Woman (2017.11.10)_1080.ts
    Формат : MPEG-TS
    Размер файла : 3, 32 Гбайт
    Продолжительность : 48 м.
    Режим общего битрейта : Переменный
    Общий поток : 9761 Кбит/сек
    Видео
    Идентификатор : 207 (0xCF)
    Идентификатор меню : 2207 (0x89F)
    Формат : AVC
    Формат/Информация : Advanced Video Codec
    Профиль формата : High@L4
    Параметр CABAC формата : Да
    Параметр ReFrames формата : 4 кадра
    Идентификатор кодека : 27
    Продолжительность : 48 м.
    Битрейт : 9085 Кбит/сек
    Ширина : 1920 пикселей
    Высота : 1080 пикселей
    Соотношение сторон : 16:9
    Частота кадров : 25, 000 кадров/сек
    Стандарт вещания : Component
    Цветовое пространство : YUV
    Субдискретизация насыщенности : 4:2:0
    Битовая глубина : 8 бит
    Тип развёртки : Чересстрочная
    Порядок развёртки : Верхнее поле первое
    Бит/(Пиксели*Кадры) : 0.175
    Размер потока : 3, 09 Гбайт (93%)
    Цветовой диапазон : Limited
    Основные цвета : BT.709
    Характеристики трансфера : BT.709
    Коэффициенты матрицы : BT.709
    Аудио
    Идентификатор : 307 (0x133)
    Идентификатор меню : 2207 (0x89F)
    Формат : MPEG Audio
    Версия формата : Version 1
    Профиль формата : Layer 2
    Идентификатор кодека : 3
    Продолжительность : 48 м.
    Вид битрейта : Постоянный
    Битрейт : 192 Кбит/сек
    Каналы : 2 канала
    Частота : 48, 0 КГц
    Метод сжатия : С потерями
    Размер потока : 66, 8 Мбайт (2%)
    Язык : Russian

    Скриншоты для ознакомления



    Все одноименные релизы в Клубе
    Время раздачи: 24/7. До первых 5 скачавших.


    Comedy Woman (2017.11.10) HDTV [H.264/1080i]
    загрузка...
    Рейтинг →
     (голосов: 1, оценка 3/5, голосовать можно 1 раз )

    Другие торренты по теме:

  • Love Is / Comedy Club / Comedy Woman (2017.08.25) WEB-DL [H.264 / 720p-LQ] (выпуск 2)
  • Love Is / Comedy Club / Comedy Woman (2017.08.25) WEB-DLRip (выпуск 2)
  • Love Is / Comedy Club / Comedy Woman (2017.08.25) WEB-DL [H.264 / 720p-LQ] (выпуск 1)
  • Love Is / Comedy Club / Comedy Woman (2017.08.25) WEB-DLRip (выпуск 1)
  • Love Is / Comedy Club / Comedy Woman (2017.08.25) SATRip (выпуск 2)
  • Love Is / Comedy Club / Comedy Woman (2017.08.25) SATRip (выпуск 1)
  • Love Is / Comedy Club / Comedy Woman (2017.08.25) HDTV [H.264 / 1080i-LQ] (выпуск 2)
  • Love Is / Comedy Club / Comedy Woman (2017.08.25) HDTV [H.264 / 1080i-LQ] (выпуск 1)


    • Комментарии (0):

      Информация

      Информация

        Посетители, находящиеся в группе Гости, не могут оставлять комментарии в данной новости.

        ↓ Меню




        ↓ Опрос

        Вы добавили сайт в закладки?
        Да
        Нет


        Top 10 за месяц (Передачи)

        Алексей Широков, Александр Шапочкин | Попаданец 2.0 (2017) [FB2]

        (скачиваний: 10)
        Фигурное катание. Гран-при 2017-2018. 3-й Этап. Кубок Китая 2017. Пекин (Китай). 2 День (04.11.2017) HDTV [H.264 / 1080i-LQ]

        (скачиваний: 8)
        Михаил Задорнов. Лучшее - сборник лучших эстрадных номеров Михаила Задорнова за 30 лет (1984-2014) WEBRip скачать через торрент бесплатно

        (скачиваний: 8)
        Орел и решка. Перезагрузка (2017.11.07) WEB-DL [H.264 / 720p-LQ] (сезон 14: Ибица. Испания)

        (скачиваний: 6)
        Журнал | Всему свету по совету №1 (228) (январь 2017) [PDF]

        (скачиваний: 6)
        Святитель Феофан Затворник | Собрание сочинений [69 Томов] (2008) [FB2]

        (скачиваний: 5)
        Трэвис Хэйли. Адаптивный автомат Калашникова / Travis Haley: Adaptive Kalash (2011) WEBRip [720p-LQ] скачать через торрент бесплатно

        (скачиваний: 5)
        Орел и решка. Перезагрузка (2017.10.30) WEB-DL [H.264 / 720p-LQ] (сезон 14: Барселона. Испания)

        (скачиваний: 5)
        Николай Ягодкин | Технология постановки навыков (2013) PCRec [H.264]

        (скачиваний: 4)
        Истории о современном искусстве (Неистовые модернисты) / Les aventuriers de lart moderne (2015) HDTVRip [H.264 / 720p-LQ] (сезон 1, серии 1-2 из 6) [обновляемая]

        (скачиваний: 4)