.
Авторизация | Регистрация
Хочешь лучшие торренты? Добавь свой email!
Добавить

Торрент скачать бесплатно

» » Открытый микрофон (2017.11.10) WEB-DL [H.264 / 720p-LQ] (сезон 2, выпуск 13) торрент скачать бесплатно




    Открытый микрофон (2017.11.10) WEB-DL [H.264 / 720p-LQ] (сезон 2, выпуск 13) торрент скачать бесплатно

    Опубликовал: Админ | Дата: 12-11-2017, 05:00 | Просмотров: 0

    Телекомпания: ТНТ
    Жанр: Юмор
    Ведущий: Андрей Бебуришвили
    Жюри: Руслан Белый, Юлия Ахмедова, Слава Комиссаренко и Тимур Каргинов

    Описание

    18 августа на ТНТ начнется 2-ой сезон любимого сериала оригинального юмористического шоу талантов – Открытый микрофон. Участниками проекта станут молодые (и не очень), никому неизвестные стендап-комики, которые будут бороться за возможность попасть в основной состав одного из самых популярных комедийных шоу в России – Stand Up на ТНТ. Несмотря на то, что многие участники Открытого микрофона не так давно занимаются стендапом, их выступления окажутся неожиданно смешными, свежими и непохожими на монологи комиков шоу Stand Up. Уже после отборочного тура станет ясно, что новички легко могут составить конкуренцию мэтрам в жанре стендап и даже перетянуть одеяло популярности на себя. Насколько реальна эта угроза - судить зрителям Открытого микрофона.
    Открытый микрофон - это не очередной развлекательный проект, это социальный лифт для комиков, работающих в самом сложном и откровенном юмористическом жанре. Все, о чем рассказывают эти ребята, основано на их реальной жизни и переживаниях. И здесь не может быть запретных тем или сторонней редактуры – только правда, только острые шутки, только стендап в Открытом микрофоне на ТНТ.
    Релиз от: svlesin
    Продолжительность: 00: 48: 57
    Качество видео: WEB-DL
    Субтитры: Отсутствуют
    Видео: AVC, 1280x720 (16: 9), 25.000 fps, 3 515 Kbps (0.153 bit/pixel)
    Аудио: AC-3, 44.1 KHz, 2 ch, 192 Kbps, CBR
    Код: выделить все
    Общее
    Уникальный идентификатор : 198100590542414546248415626802905604022 (0x9508C932E1B6FC3CBCFA09D41271DFB6)
    Полное имя : D:[1]Открытый микрофонОткрытый микрофон. Сезон 2. Выпуск 13 (2017.11.10)_720.mkv
    Формат : Matroska
    Версия формата : Version 4/Version 2
    Размер файла : 1, 29 Гбайт
    Продолжительность : 48 м.
    Общий поток : 3782 Кбит/сек
    Название фильма : Открытый микрофон. Сезон 2. Выпуск 13 (2017.11.10)_720_nnm-club.name
    Дата кодирования : UTC 2017-11-11 10:44:01
    Программа кодирования : mkvmerge v17.0.0 (\'Be Ur Friend\') 64-bit
    Библиотека кодирования : libebml v1.3.5 + libmatroska v1.4.8
    Attachements : nnm-club.name.png
    DURATION : 00:48:56.999000000
    NUMBER_OF_FRAMES : 84324
    NUMBER_OF_BYTES : 70487980
    _STATISTICS_WRITING_APP : mkvmerge v17.0.0 (\'Be Ur Friend\') 64-bit
    _STATISTICS_WRITING_DATE_UTC : 2017-11-11 10:44:01
    _STATISTICS_TAGS : BPS DURATION NUMBER_OF_FRAMES NUMBER_OF_BYTES
    Видео
    Идентификатор : 1
    Формат : AVC
    Формат/Информация : Advanced Video Codec
    Профиль формата :High@L3.1
    Параметр CABAC формата : Да
    Параметр ReFrames формата : 1 кадр
    Параметр GOP формата : M=1, N=12
    Идентификатор кодека : V_MPEG4/ISO/AVC
    Продолжительность : 48 м.
    Битрейт : 3515 Кбит/сек
    Ширина : 1280 пикселей
    Высота : 720 пикселей
    Соотношение сторон : 16:9
    Режим частоты кадров : Постоянный
    Частота кадров : 25, 000 кадров/сек
    Стандарт вещания : Component
    Цветовое пространство : YUV
    Субдискретизация насыщенности : 4:2:0
    Битовая глубина : 8 бит
    Тип развёртки : Прогрессивная
    Бит/(Пиксели*Кадры) : 0.153
    Размер потока : 1, 20 Гбайт (93%)
    Язык : English
    Default : Да
    Forced : Нет
    Цветовой диапазон : Limited
    Аудио
    Идентификатор : 2
    Формат : AC-3
    Формат/Информация : Audio Coding 3
    Расширение режима : CM (complete main)
    Параметр Endianness формата : Big
    Идентификатор кодека : A_AC3
    Продолжительность : 48 м.
    Вид битрейта : Постоянный
    Битрейт : 192 Кбит/сек
    Каналы : 2 канала
    Расположение каналов : Front: L R
    Частота : 44, 1 КГц
    Битовая глубина : 16 бит
    Метод сжатия : С потерями
    Размер потока : 67, 2 Мбайт (5%)
    Default : Да
    Forced : Нет
    · Отбор в команды
    Начинающие комики выступят перед жюри со своим стендапом. Участник проходит в команду, если его выбрал хотя бы один из наставников. К концу этапа будет сформировано 4 команды по 8 человек, которые и начнут борьбу за главный приз проекта.
    · Дуэли
    Участникам предстоит поработать со своими наставниками и написать одно новое выступление. В каждой программе на сцену поднимутся по 2 участника от каждой команды. По итогам выступления наставник должен будет оставить в проекте только одного из них.
    · Концерты
    Каждая команда готовит концерт с участием всех комиков. Один выпуск – один концерт каждой команды. В конце программы наставник выберет того, кто покинет шоу.
    · Полуфинал
    Комики борются за право попасть в финал Открытого микрофона. Как всегда, выступления им помогают готовить наставники. В финал проходят по два участника от каждой команды.
    · Финал
    8 финалистов выйдут на легендарную сцену проекта Stand Up на ТНТ! Каждый комик покажет свое финальное выступление. Члены жюри совместно выберут победителя первого сезон любимого сериалаа шоу Открытый микрофон и нового постоянного комика проекта StandUp на ТНТ!

    Скриншоты для ознакомления



    Все одноименные релизы в Клубе
    Время раздачи: 24/7. До первых 5 скачавших.


    Открытый микрофон (2017.11.10) WEB-DL [H.264/720p-LQ] (сезон 2, выпуск 13)
    загрузка...
    Рейтинг →
     (голосов: 1, оценка 5/5, голосовать можно 1 раз )

    Другие торренты по теме:

  • Открытый микрофон (2017.02.17) WEB-DL [H.264 / 720p-LQ] (выпуск 4)
  • Открытый микрофон (2017.02.17) SATRip (выпуск 4)
  • Открытый микрофон (2017.02.10) WEB-DL [H.264 / 720p-LQ] (выпуск 3)
  • Открытый микрофон (2017.02.10) SATRip (выпуск 3)
  • Открытый микрофон (2017.02.22) WEB-DL [H.264 / 720p-LQ] (выпуск 5)
  • Открытый микрофон (2017.02.22) SATRip (выпуск 5)
  • Открытый микрофон (2017.03.03) HDTV [H.264 / 1080i] (выпуск 6)
  • Открытый микрофон (2017.03.03) WEB-DL [H.264 / 720p-LQ] (выпуск 6)


    • Комментарии (0):

      Информация

      Информация

        Посетители, находящиеся в группе Гости, не могут оставлять комментарии в данной новости.

        ↓ Меню




        ↓ Опрос

        Вы добавили сайт в закладки?
        Да
        Нет


        Top 10 за месяц (Передачи)

        Михаил Задорнов. Лучшее - сборник лучших эстрадных номеров Михаила Задорнова за 30 лет (1984-2014) WEBRip скачать через торрент бесплатно

        (скачиваний: 7)
        Журнал | Всему свету по совету №1 (228) (январь 2017) [PDF]

        (скачиваний: 6)
        Фигурное катание. Гран-при 2017-2018. 3-й Этап. Кубок Китая 2017. Пекин (Китай). 2 День (04.11.2017) HDTV [H.264 / 1080i-LQ]

        (скачиваний: 6)
        Трэвис Хэйли. Адаптивный автомат Калашникова / Travis Haley: Adaptive Kalash (2011) WEBRip [720p-LQ] скачать через торрент бесплатно

        (скачиваний: 5)
        Святитель Феофан Затворник | Собрание сочинений [69 Томов] (2008) [FB2]

        (скачиваний: 5)
        Орел и решка. Перезагрузка (2017.11.07) WEB-DL [H.264 / 720p-LQ] (сезон 14: Ибица. Испания)

        (скачиваний: 4)
        Николай Ягодкин | Технология постановки навыков (2013) PCRec [H.264]

        (скачиваний: 4)
        Журнал | Рецепты на бис. Спецвыпуск №1 (19) (2017) [PDF]

        (скачиваний: 4)
        Айрэн По, Джули По | Нумерология, как профессия. Мы из матрицы. Книга 1 (2016) [DJVU]

        (скачиваний: 4)
        Comedy Club (2010-2014) SATRip / WEB-DLRip [Выпуск: 201-363] скачать через торрент бесплатно

        (скачиваний: 4)