.
Авторизация | Регистрация
Хочешь лучшие торренты? Добавь свой email!
Добавить

Торрент скачать бесплатно

» » Лига смеха (2017.11.10) WEB-DLRip (сезон 3, выпуск 12) торрент скачать бесплатно




    Лига смеха (2017.11.10) WEB-DLRip (сезон 3, выпуск 12) торрент скачать бесплатно

    Опубликовал: Админ | Дата: 12-11-2017, 05:00 | Просмотров: 0

    Телекомпания: 1+1
    Жанр: Юмор
    Выпущено: Украина, Студия 95 квартал, Телеканал 1+1
    Жюри: Юрий Горбунов, Елена Кравец, Потап, Антон Лирник, Сергей Сивохо и Игорь Ласточкин
    Ведущий: Владимир Зеленский

    Описание

    Третий чемпионат Украины по юмору начинается. Теперь по пятницам самые смешные представители молодежи будут соревноваться в том, кто сможет больше надорвать животы зрителям. Состав жюри остался неизменным, судить будут Потап, Юрий Горбунов, Елена Кравец, Оля Полякова, Игорь Ласточкин, Сергей Сивохо и Антон Лирник. Отборочные игры перетекут в сезон любимого сериала, в котором шансы на победу имеет кто угодно, ведь триумфатор прошлого года, Прозрачный гонщик, показал, что даже нестандартный юмор имеет право не только на жизнь, но и на признание.
    Релиз от: svlesin
    Продолжительность: 01: 40: 40
    Качество видео: WEB-DLRip
    Субтитры: Отсутствуют
    Видео: MPEG4, XviD, 720x400 (16: 9), 25.000 fps, 1 800 Kbps (0.250 bit/pixel)
    Аудио: MP3, 44.1 KHz, 2 ch, 128 Kbps, CBR
    Код: выделить все
    Общее
    Полное имя : D:[1]Лига смехаЛига смеха. Сезон 3. Выпуск 12 (2017.11.10)_WEB-DLRip.avi
    Формат : AVI
    Формат/Информация : Audio Video Interleave
    Размер файла : 1, 41 Гбайт
    Продолжительность : 1 ч. 40 м.
    Общий поток : 2002 Кбит/сек
    Название фильма : Liga smeha.3.12(2017.11.10)_nnm-club.name
    Программа кодирования : VirtualDubModRus 1.5.10.2 (build 2542/release)
    Библиотека кодирования : VirtualDubMod build 2542/release
    Видео
    Идентификатор : 0
    Формат : MPEG-4 Visual
    Профиль формата : Advanced Simple@L5
    Параметр BVOP формата : 1
    Параметр QPel формата : Нет
    Параметр GMC формата : Без точки перехода
    Параметр матрицы формата : Default (H.263)
    Идентификатор кодека : XVID
    Идентификатор кодека/Подсказка : XviD
    Продолжительность : 1 ч. 40 м.
    Битрейт : 1800 Кбит/сек
    Ширина : 720 пикселей
    Высота : 400 пикселей
    Соотношение сторон : 16:9
    Частота кадров : 25, 000 кадров/сек
    Цветовое пространство : YUV
    Субдискретизация насыщенности : 4:2:0
    Битовая глубина : 8 бит
    Тип развёртки : Прогрессивная
    Метод сжатия : С потерями
    Бит/(Пиксели*Кадры) : 0.250
    Размер потока : 1, 27 Гбайт (90%)
    Библиотека кодирования : XviD 67
    Аудио
    Идентификатор : 1
    Формат : MPEG Audio
    Версия формата : Version 1
    Профиль формата : Layer 3
    Режим : Joint stereo
    Расширение режима : MS Stereo
    Идентификатор кодека : 55
    Идентификатор кодека/Подсказка : MP3
    Продолжительность : 1 ч. 40 м.
    Вид битрейта : Постоянный
    Битрейт : 192 Кбит/сек
    Каналы : 2 канала
    Частота : 44, 1 КГц
    Метод сжатия : С потерями
    Размер потока : 138 Мбайт (10%)
    Выравнивание : Разделение по промежуткам
    Продолжительность промежутка : 40 мс. (1, 00 видеокадр)
    Время предзагрузки промежутка : 500 мс.
    Библиотека кодирования : LAME3.99.5

    Скриншоты для ознакомления



    Все одноименные релизы в Клубе
    Время раздачи: 24/7. До первых 5 скачавших.


    Лига смеха (2017.11.10) WEB-DLRip (сезон 3, выпуск 12)
    загрузка...
    Рейтинг →
     (голосов: 1, оценка 4/5, голосовать можно 1 раз )

    Другие торренты по теме:

  • Лига смеха. Выпуск 4 (2015.05.30) SATRip скачать через торрент бесплатно
  • Лига смеха. Выпуск 5 (2015.06.06) SATRip скачать через торрент бесплатно
  • Лига смеха. Выпуск 6 (2015.10.03) SATRip скачать через торрент бесплатно
  • Лига смеха. Выпуск 7 (2015.10.10) SATRip скачать через торрент бесплатно
  • Лига смеха. Выпуск 8. Финал (2016.01.02) SATRip скачать через торрент бесплатно
  • Лига смеха. Выпуск 9. Зимний кубок (2016.01.09) SATRip скачать через торрент бесплатно
  • Лига смеха (2016.03.05) SATRip (сезон 2, выпуск 1)
  • Лига смеха (2016.03.12) SATRip (сезон 2, выпуск 2)


    • Комментарии (0):

      Информация

      Информация

        Посетители, находящиеся в группе Гости, не могут оставлять комментарии в данной новости.

        ↓ Меню




        ↓ Опрос

        Вы добавили сайт в закладки?
        Да
        Нет


        Top 10 за месяц (Передачи)

        Алексей Широков, Александр Шапочкин | Попаданец 2.0 (2017) [FB2]

        (скачиваний: 9)
        Михаил Задорнов. Лучшее - сборник лучших эстрадных номеров Михаила Задорнова за 30 лет (1984-2014) WEBRip скачать через торрент бесплатно

        (скачиваний: 8)
        Фигурное катание. Гран-при 2017-2018. 3-й Этап. Кубок Китая 2017. Пекин (Китай). 2 День (04.11.2017) HDTV [H.264 / 1080i-LQ]

        (скачиваний: 6)
        Орел и решка. Перезагрузка (2017.11.07) WEB-DL [H.264 / 720p-LQ] (сезон 14: Ибица. Испания)

        (скачиваний: 6)
        Журнал | Всему свету по совету №1 (228) (январь 2017) [PDF]

        (скачиваний: 6)
        Трэвис Хэйли. Адаптивный автомат Калашникова / Travis Haley: Adaptive Kalash (2011) WEBRip [720p-LQ] скачать через торрент бесплатно

        (скачиваний: 5)
        Святитель Феофан Затворник | Собрание сочинений [69 Томов] (2008) [FB2]

        (скачиваний: 5)
        Горная бригада (2014) HDTVRip [720p-LQ] [Серии: 1-12 из 12] скачать через торрент бесплатно

        (скачиваний: 4)
        Айрэн По, Джули По | Нумерология, как профессия. Мы из матрицы. Книга 1 (2016) [DJVU]

        (скачиваний: 4)
        Журнал | Рецепты на бис. Спецвыпуск №1 (19) (2017) [PDF]

        (скачиваний: 4)