.
Авторизация | Регистрация
Хочешь лучшие торренты? Добавь свой email!
Добавить

Торрент скачать бесплатно

» » Юмор! Юмор! Юмор! (2017.11.11) SATRip торрент скачать бесплатно




    Юмор! Юмор! Юмор! (2017.11.11) SATRip торрент скачать бесплатно

    Опубликовал: Админ | Дата: 12-11-2017, 05:00 | Просмотров: 0

    Телекомпания: Россия
    Жанр: Юмор
    Ведущие: Евгений Петросян
    Участники: Елена Степаненко, Святослав Ещенко, Геннадий Ветров, Юрий Гальцев, Сергей Дроботенко, Михаил Смирнов, Александр Морозов, Новые русские бабки, Карен Аванесян, Владимир Данилец и Владимир Моисеенко, Обид Асомов, Виктор Разумовский.

    Описание

    1 апреля много не бывает! Автор и ведущий Евгений Петросян считает, что этот (да и следующие за ним дни!) не стоит использовать для глупых розыгрышей. В этот день нужно делать забавные, приятные сюрпризы и рассматривать его как призыв к веселому взгляду на жизнь, к стремлению радоваться жизни и друг другу. Именно поэтому зрители увидят фрагменты из самых смешных номеров мэтра юмористического жанра эстрады и его многочисленных коллег.
    Режиссер фильма Константин Владимиров приготовил массу ярких спецэффектов, которые разукрасят своим неповторимым калейдоскопом этот веселый фильм-концерт. А сам Евгений Петросян так закружился в этом юмористическом вихре, что в буквальном смысле потерял голову!
    Релиз от: -=DeMoH=-
    Продолжительность: 01: 42: 10
    Качество видео: SATRip
    Субтитры: Отсутствуют
    Видео: MPEG4, XviD, 720x400 (16: 9), 25.000 fps, 1 800 Kbps (0.250 bit/pixel)
    Аудио: AC-3, 48.0 KHz, 2 ch, 192 Kbps, CBR
    Код: выделить все
    Общее
    Полное имя : D:[1]Юмор! Юмор! Юмор!Юмор! Юмор! Юмор! (2017.11.11).avi
    Формат : AVI
    Формат/Информация : Audio Video Interleave
    Размер файла : 1, 43 Гбайт
    Продолжительность : 1 ч. 42 м.
    Общий поток : 2001 Кбит/сек
    Программа кодирования : VirtualDubMod 1.5.10.3 |www.virtualdub-fr.org|| (build 2550/release)
    Библиотека кодирования : VirtualDubMod build 2550/release
    Видео
    Идентификатор : 0
    Формат : MPEG-4 Visual
    Профиль формата : Advanced Simple@L5
    Параметр BVOP формата : 2
    Параметр QPel формата : Нет
    Параметр GMC формата : Без точки перехода
    Параметр матрицы формата : Default (H.263)
    Идентификатор кодека : XVID
    Идентификатор кодека/Подсказка : XviD
    Продолжительность : 1 ч. 42 м.
    Битрейт : 1800 Кбит/сек
    Ширина : 720 пикселей
    Высота : 400 пикселей
    Соотношение сторон : 16:9
    Частота кадров : 25, 000 кадров/сек
    Цветовое пространство : YUV
    Субдискретизация насыщенности : 4:2:0
    Битовая глубина : 8 бит
    Тип развёртки : Прогрессивная
    Метод сжатия : С потерями
    Бит/(Пиксели*Кадры) : 0.250
    Размер потока : 1, 28 Гбайт (90%)
    Библиотека кодирования : XviD 1.2.1 (UTC 2008-12-04)
    Аудио
    Идентификатор : 1
    Формат : AC-3
    Формат/Информация : Audio Coding 3
    Расширение режима : CM (complete main)
    Параметр Endianness формата : Big
    Идентификатор кодека : 2000
    Продолжительность : 1 ч. 42 м.
    Вид битрейта : Постоянный
    Битрейт : 192 Кбит/сек
    Каналы : 2 канала
    Расположение каналов : Front: L R
    Частота : 48, 0 КГц
    Битовая глубина : 16 бит
    Метод сжатия : С потерями
    Размер потока : 140 Мбайт (10%)
    Выравнивание : Разделение по промежуткам
    Продолжительность промежутка : 40 мс. (1, 00 видеокадр)
    Время предзагрузки промежутка : 500 мс.

    Скриншоты для ознакомления



    Все одноименные релизы в Клубе
    Время раздачи: 24/7. До первых 5 скачавших.


    Юмор! Юмор! Юмор! (2017.11.11) SATRip
    загрузка...
    Рейтинг →
     (голосов: 1, оценка 4/5, голосовать можно 1 раз )

    Другие торренты по теме:

  • Юмор! Юмор! Юмор! (2016.04.03) SATRip (выпуск 1)
  • Юмор! Юмор! Юмор! (2016.10.01) SATRip
  • Юмор! Юмор! Юмор! (2016.10.22) SATRip
  • Юмор! Юмор! Юмор! (2016.11.05) SATRip
  • Юмор! Юмор! Юмор! (2016.12.03) SATRip
  • Юмор! Юмор! Юмор! (2016.12.17) SATRip
  • Юмор! Юмор! Юмор! (2016.12.24) SATRip
  • Юмор! Юмор! Юмор! (2017.02.18) SATRip


    • Комментарии (0):

      Информация

      Информация

        Посетители, находящиеся в группе Гости, не могут оставлять комментарии в данной новости.

        ↓ Меню




        ↓ Опрос

        Вы добавили сайт в закладки?
        Да
        Нет


        Top 10 за месяц (Передачи)

        Алексей Широков, Александр Шапочкин | Попаданец 2.0 (2017) [FB2]

        (скачиваний: 9)
        Михаил Задорнов. Лучшее - сборник лучших эстрадных номеров Михаила Задорнова за 30 лет (1984-2014) WEBRip скачать через торрент бесплатно

        (скачиваний: 8)
        Фигурное катание. Гран-при 2017-2018. 3-й Этап. Кубок Китая 2017. Пекин (Китай). 2 День (04.11.2017) HDTV [H.264 / 1080i-LQ]

        (скачиваний: 6)
        Орел и решка. Перезагрузка (2017.11.07) WEB-DL [H.264 / 720p-LQ] (сезон 14: Ибица. Испания)

        (скачиваний: 6)
        Журнал | Всему свету по совету №1 (228) (январь 2017) [PDF]

        (скачиваний: 6)
        Трэвис Хэйли. Адаптивный автомат Калашникова / Travis Haley: Adaptive Kalash (2011) WEBRip [720p-LQ] скачать через торрент бесплатно

        (скачиваний: 5)
        Святитель Феофан Затворник | Собрание сочинений [69 Томов] (2008) [FB2]

        (скачиваний: 5)
        Горная бригада (2014) HDTVRip [720p-LQ] [Серии: 1-12 из 12] скачать через торрент бесплатно

        (скачиваний: 4)
        Айрэн По, Джули По | Нумерология, как профессия. Мы из матрицы. Книга 1 (2016) [DJVU]

        (скачиваний: 4)
        Журнал | Рецепты на бис. Спецвыпуск №1 (19) (2017) [PDF]

        (скачиваний: 4)