.
Авторизация | Регистрация
Хочешь лучшие торренты? Добавь свой email!
Добавить

Торрент скачать бесплатно

» » Международная пилорама (2017.11.11) SATRip торрент скачать бесплатно




    Международная пилорама (2017.11.11) SATRip торрент скачать бесплатно

    Опубликовал: Админ | Дата: 12-11-2017, 05:00 | Просмотров: 0

    Производство: НТВ
    Жанр: Юмор
    Ведущие: Тигран Кеосаян

    Описание

    Международная пилорама сэкономит время телезрителей. Следить за политической обстановкой в мире, колебаниями курсов валют и новостями шоу-бизнеса теперь вовсе не обязательно. Каждую субботу Тигран Эдмондович в свойственной ему язвительной манере будет разбирать события мировой политики. Под огонь его едких комментариев попадут многие — от журналистов до политических лидеров. Благодаря харизме и обаянию Кеосаяна топовые темы недели вмиг превратятся в юмористические зарисовки, соавторами которых станут его гости –популярные актеры, певцы, чиновники и спортсмены, а позитивное настроение в студии поддержат специальные рубрики.
    Продолжительность: 00: 39: 04
    Качество видео: SATRip
    Субтитры: Отсутствуют
    Реклама: Присутствуют вставки текстовой рекламы
    Видео: MPEG4, XviD, 720x448 (1.607), 25.000 fps, 1 800 Kbps (0.223 bit/pixel)
    Аудио: MP3, 48.0 KHz, 2 ch, 128 Kbps, CBR
    Код: выделить все
    Общее
    Полное имя : D:[1]Международная пилорамаМеждународная пилорама (2017.11.11).avi
    Формат : AVI
    Формат/Информация : Audio Video Interleave
    Размер файла : 541 Мбайт
    Продолжительность : 39 м.
    Общий поток : 1938 Кбит/сек
    Программа кодирования : VirtualDubModRus 1.5.10.2 (build 2542/release)
    Библиотека кодирования : VirtualDubMod build 2542/release
    Видео
    Идентификатор : 0
    Формат : MPEG-4 Visual
    Профиль формата : Advanced Simple@L5
    Параметр BVOP формата : 2
    Параметр QPel формата : Нет
    Параметр GMC формата : Без точки перехода
    Параметр матрицы формата : Default (MPEG)
    Идентификатор кодека : XVID
    Идентификатор кодека/Подсказка : XviD
    Продолжительность : 39 м.
    Битрейт : 1800 Кбит/сек
    Ширина : 720 пикселей
    Высота : 448 пикселей
    Соотношение сторон : 16:10
    Частота кадров : 25, 000 кадров/сек
    Цветовое пространство : YUV
    Субдискретизация насыщенности : 4:2:0
    Битовая глубина : 8 бит
    Тип развёртки : Прогрессивная
    Метод сжатия : С потерями
    Бит/(Пиксели*Кадры) : 0.223
    Размер потока : 503 Мбайт (93%)
    Библиотека кодирования : XviD 73
    Аудио
    Идентификатор : 1
    Формат : MPEG Audio
    Версия формата : Version 1
    Профиль формата : Layer 3
    Идентификатор кодека : 55
    Идентификатор кодека/Подсказка : MP3
    Продолжительность : 39 м.
    Вид битрейта : Постоянный
    Битрейт : 128 Кбит/сек
    Каналы : 2 канала
    Частота : 48, 0 КГц
    Метод сжатия : С потерями
    Размер потока : 35, 8 Мбайт (7%)
    Выравнивание : Соединение по промежуткам
    Продолжительность промежутка : 40 мс. (1, 00 видеокадр)
    Время предзагрузки промежутка : 504 мс.
    Библиотека кодирования : LAME3.99r
    Настройки программы : -m s -V 4 -q 2 -lowpass 17 -b 128

    Скриншоты для ознакомления



    Все одноименные релизы в Клубе
    Время раздачи: 24/7. До первых 5 скачавших.


    Международная пилорама (2017.11.11) SATRip
    загрузка...
    Рейтинг →
     (голосов: 1, оценка 5/5, голосовать можно 1 раз )

    Другие торренты по теме:

  • Международная пилорама (2016.09.03) SATRip (выпуск 1)
  • Международная пилорама (2016.09.10) SATRip (выпуск 2)
  • Международная пилорама (2016.09.17) SATRip (выпуск 3)
  • Международная пилорама (2016.09.24) SATRip (выпуск 4)
  • Международная пилорама (2016.10.02) SATRip (выпуск 5)
  • Международная пилорама (2016.10.08) SATRip (выпуск 6)
  • Международная пилорама (2016.10.15) SATRip (выпуск 7)
  • Международная пилорама (2016.10.22) SATRip (выпуск 8)


    • Комментарии (0):

      Информация

      Информация

        Посетители, находящиеся в группе Гости, не могут оставлять комментарии в данной новости.

        ↓ Меню




        ↓ Опрос

        Вы добавили сайт в закладки?
        Да
        Нет


        Top 10 за месяц (Передачи)

        Алексей Широков, Александр Шапочкин | Попаданец 2.0 (2017) [FB2]

        (скачиваний: 10)
        Фигурное катание. Гран-при 2017-2018. 3-й Этап. Кубок Китая 2017. Пекин (Китай). 2 День (04.11.2017) HDTV [H.264 / 1080i-LQ]

        (скачиваний: 8)
        Михаил Задорнов. Лучшее - сборник лучших эстрадных номеров Михаила Задорнова за 30 лет (1984-2014) WEBRip скачать через торрент бесплатно

        (скачиваний: 8)
        Орел и решка. Перезагрузка (2017.11.07) WEB-DL [H.264 / 720p-LQ] (сезон 14: Ибица. Испания)

        (скачиваний: 6)
        Журнал | Всему свету по совету №1 (228) (январь 2017) [PDF]

        (скачиваний: 6)
        Святитель Феофан Затворник | Собрание сочинений [69 Томов] (2008) [FB2]

        (скачиваний: 5)
        Трэвис Хэйли. Адаптивный автомат Калашникова / Travis Haley: Adaptive Kalash (2011) WEBRip [720p-LQ] скачать через торрент бесплатно

        (скачиваний: 5)
        Орел и решка. Перезагрузка (2017.10.30) WEB-DL [H.264 / 720p-LQ] (сезон 14: Барселона. Испания)

        (скачиваний: 5)
        Николай Ягодкин | Технология постановки навыков (2013) PCRec [H.264]

        (скачиваний: 4)
        Истории о современном искусстве (Неистовые модернисты) / Les aventuriers de lart moderne (2015) HDTVRip [H.264 / 720p-LQ] (сезон 1, серии 1-2 из 6) [обновляемая]

        (скачиваний: 4)