.
Авторизация | Регистрация
Хочешь лучшие торренты? Добавь свой email!
Добавить

Торрент скачать бесплатно

» » Научное расследование Сергея Малозёмова. Еда живая и мертвая (2017.11.11) SATRip торрент скачать бесплатно




    Научное расследование Сергея Малозёмова. Еда живая и мертвая (2017.11.11) SATRip торрент скачать бесплатно

    Опубликовал: Админ | Дата: 12-11-2017, 05:00 | Просмотров: 0

    Производство: НТВ
    Жанр: Документальный
    Ведущие: Сергей Малозёмов

    Описание

    Еда живая и мертвая – новый научно-популярный цикл Сергея Малозёмова, репортера с медицинским образованием, автора и ведущего программы Чудо техники и научных расследований о климате, технологиях, бессмертии и экологии.
    Релиз от: -=FOX=-
    Продолжительность: 00: 41: 02
    Качество видео: SATRip
    Субтитры: Отсутствуют
    Видео: MPEG4, XviD, 720x448 (1.607), 25.000 fps, 1 800 Kbps (0.223 bit/pixel)
    Аудио: MP3, 48.0 KHz, 2 ch, 128 Kbps, CBR
    Код: выделить все
    Общее
    Полное имя : D:[1]Еда живая и мертваяЕда живая и мертвая (2017.11.11).avi
    Формат : AVI
    Формат/Информация : Audio Video Interleave
    Размер файла : 569 Мбайт
    Продолжительность : 41 м.
    Общий поток : 1938 Кбит/сек
    Программа кодирования : VirtualDubMod 1.5.10.3 |www.virtualdub-fr.org|| (build 2550/release)
    Библиотека кодирования : VirtualDubMod build 2550/release
    Видео
    Идентификатор : 0
    Формат : MPEG-4 Visual
    Профиль формата : Advanced Simple@L5
    Параметр BVOP формата : 2
    Параметр QPel формата : Нет
    Параметр GMC формата : Без точки перехода
    Параметр матрицы формата : Default (MPEG)
    Идентификатор кодека : XVID
    Идентификатор кодека/Подсказка : XviD
    Продолжительность : 41 м.
    Битрейт : 1800 Кбит/сек
    Ширина : 720 пикселей
    Высота : 448 пикселей
    Соотношение сторон : 16:10
    Частота кадров : 25, 000 кадров/сек
    Цветовое пространство : YUV
    Субдискретизация насыщенности : 4:2:0
    Битовая глубина : 8 бит
    Тип развёртки : Прогрессивная
    Метод сжатия : С потерями
    Бит/(Пиксели*Кадры) : 0.223
    Размер потока : 528 Мбайт (93%)
    Библиотека кодирования : XviD 73
    Аудио
    Идентификатор : 1
    Формат : MPEG Audio
    Версия формата : Version 1
    Профиль формата : Layer 3
    Идентификатор кодека : 55
    Идентификатор кодека/Подсказка : MP3
    Продолжительность : 41 м.
    Вид битрейта : Постоянный
    Битрейт : 128 Кбит/сек
    Каналы : 2 канала
    Частота : 48, 0 КГц
    Метод сжатия : С потерями
    Размер потока : 37, 6 Мбайт (7%)
    Выравнивание : Соединение по промежуткам
    Продолжительность промежутка : 40 мс. (1, 00 видеокадр)
    Время предзагрузки промежутка : 504 мс.
    Библиотека кодирования : LAME3.99r
    Настройки программы : -m s -V 4 -q 2 -lowpass 17 -b 128
    - Кукурузная мука, масло, чипсы, полента, попкорн... Какие продукты из кукурузы полезны, а какие опасны? За что ее ценят спортсмены? Можно ли с ее помощью похудеть? И что делает консервированную кукурузу такой сладкой?
    - Сладость - в радость? Такое бывает! Пять неожиданных десертов, которые могут быть полезны.
    - Почему все боятся холестерина? Действительно ли он так опасен? Каких продуктов стоит избегать? Последние научные исследования и рекомендации ученых.
    - Действительно ли черника улучшает зрение? Отвечаем на вопросы зрителей.
    - И рецепт недели - красиво, быстро и вкусно.

    Скриншоты для ознакомления



    Все одноименные релизы в Клубе
    Время раздачи: 24/7. До первых 5 скачавших.


    Научное расследование Сергея Малозёмова. Еда живая и мертвая (2017.11.11) SATRip
    загрузка...
    Рейтинг →
     (голосов: 1, оценка 4/5, голосовать можно 1 раз )

    Другие торренты по теме:

  • Научное расследование Сергея Малозёмова: ГМО. Еда раздора (2014.12.06) SATRip скачать через торрент бесплатно
  • Научное расследование Сергея Малозёмова: Ген пьянства (2014.12.13) SATRip
  • Научное расследование Сергея Малозёмова: Соль и сахар. Смерть по вкусу (2014.12.20) SATRip скачать через торрент бесплатно
  • Научное расследование Сергея Малозёмова: Технология бессмертия (2014.12.27) SATRip
  • Научное расследование Сергея Малозёмова: Холод (2013) SATRip
  • Научное расследование Сергея Малозёмова: Город-убийца (2014) SATRip
  • Научное расследование Сергея Малозёмова. Еда живая и мертвая: Рыба (2015.11.07) SATRip скачать через торрент бесплатно
  • Научное расследование Сергея Малозёмова. Еда живая и мертвая: Вода (2015.11.14) SATRip скачать через торрент бесплатно


    • Комментарии (0):

      Информация

      Информация

        Посетители, находящиеся в группе Гости, не могут оставлять комментарии в данной новости.

        ↓ Меню




        ↓ Опрос

        Вы добавили сайт в закладки?
        Да
        Нет


        Top 10 за месяц (Передачи)

        Михаил Задорнов. Лучшее - сборник лучших эстрадных номеров Михаила Задорнова за 30 лет (1984-2014) WEBRip скачать через торрент бесплатно

        (скачиваний: 7)
        Журнал | Всему свету по совету №1 (228) (январь 2017) [PDF]

        (скачиваний: 6)
        Фигурное катание. Гран-при 2017-2018. 3-й Этап. Кубок Китая 2017. Пекин (Китай). 2 День (04.11.2017) HDTV [H.264 / 1080i-LQ]

        (скачиваний: 6)
        Трэвис Хэйли. Адаптивный автомат Калашникова / Travis Haley: Adaptive Kalash (2011) WEBRip [720p-LQ] скачать через торрент бесплатно

        (скачиваний: 5)
        Святитель Феофан Затворник | Собрание сочинений [69 Томов] (2008) [FB2]

        (скачиваний: 5)
        Орел и решка. Перезагрузка (2017.11.07) WEB-DL [H.264 / 720p-LQ] (сезон 14: Ибица. Испания)

        (скачиваний: 4)
        Николай Ягодкин | Технология постановки навыков (2013) PCRec [H.264]

        (скачиваний: 4)
        Журнал | Рецепты на бис. Спецвыпуск №1 (19) (2017) [PDF]

        (скачиваний: 4)
        Айрэн По, Джули По | Нумерология, как профессия. Мы из матрицы. Книга 1 (2016) [DJVU]

        (скачиваний: 4)
        Comedy Club (2010-2014) SATRip / WEB-DLRip [Выпуск: 201-363] скачать через торрент бесплатно

        (скачиваний: 4)