.
Авторизация | Регистрация
Хочешь лучшие торренты? Добавь свой email!
Добавить

Торрент скачать бесплатно

» » Военная тайна с Игорем Прокопенко (2017.11.11) WEB-DLRip [H.264 / 720p-LQ] торрент скачать бесплатно




    Военная тайна с Игорем Прокопенко (2017.11.11) WEB-DLRip [H.264 / 720p-LQ] торрент скачать бесплатно

    Опубликовал: Админ | Дата: 12-11-2017, 05:00 | Просмотров: 0

    Телекомпания: РЕН
    Жанр: Документальный
    Ведущий: Игорь Прокопенко

    Описание

    Военная тайна — одна из старейших программ на нашем канале, которая имеет очень устойчивую аудиторию и которой нет аналогов на отечественном телевидении. Её содержание полностью соответствует интригующему названию: своими секретами с ведущим и корреспондентами программы делятся военные и политики, разведчики, шпионы и диверсанты, террористы и сотрудники спецслужб. Визитная карточка программы — это эксклюзивная информация, уникальные документы и видеосъемка. Объект исследования парадоксальные события, оставившие след в нашей истории, а также тайные пружины, которые подчас приводят в действие механизм обеспечения безопасности государства.
    Релиз от: svlesin
    Качество видео: WEB-DLRip
    Продолжительность: 03: 36: 27
    Субтитры: Отсутствуют
    Видео: AVC, 1280x720 (16: 9), 25.000 fps, 1 398 Kbps (0.061 bit/pixel)
    Аудио: AC-3, 44.1 KHz, 2 ch, 192 Kbps, CBR
    Код: выделить все
    Общее
    Уникальный идентификатор : 237220763260217787160344705667869187892 (0xB2770EA0AECBB629AFF7966C62C81F34)
    Полное имя : D:[1]Военная тайнаВоенная тайна с Игорем Прокопенко (2017.11.11)_720.mkv
    Формат : Matroska
    Версия формата : Version 4/Version 2
    Размер файла : 2, 45 Гбайт
    Продолжительность : 3 ч. 36 м.
    Общий поток : 1622 Кбит/сек
    Название фильма : Военная тайна с Игорем Прокопенко (2017.11.11)_720_nnm-club.name
    Дата кодирования : UTC 2017-11-11 11:19:30
    Программа кодирования : mkvmerge v17.0.0 (\'Be Ur Friend\') 64-bit
    Библиотека кодирования : libebml v1.3.5 + libmatroska v1.4.8
    DURATION : 03:36:27.525000000
    NUMBER_OF_FRAMES : 372884
    NUMBER_OF_BYTES : 311700584
    _STATISTICS_WRITING_APP : mkvmerge v17.0.0 (\'Be Ur Friend\') 64-bit
    _STATISTICS_WRITING_DATE_UTC : 2017-11-11 11:19:30
    _STATISTICS_TAGS : BPS DURATION NUMBER_OF_FRAMES NUMBER_OF_BYTES
    Видео
    Идентификатор : 1
    Формат : AVC
    Формат/Информация : Advanced Video Codec
    Профиль формата :Main@L3.1
    Параметр CABAC формата : Да
    Параметр ReFrames формата : 3 кадра
    Идентификатор кодека : V_MPEG4/ISO/AVC
    Продолжительность : 3 ч. 36 м.
    Битрейт : 1398 Кбит/сек
    Ширина : 1280 пикселей
    Высота : 720 пикселей
    Соотношение сторон : 16:9
    Режим частоты кадров : Постоянный
    Частота кадров : 25, 000 кадров/сек
    Цветовое пространство : YUV
    Субдискретизация насыщенности : 4:2:0
    Битовая глубина : 8 бит
    Тип развёртки : Прогрессивная
    Бит/(Пиксели*Кадры) : 0.061
    Размер потока : 2, 11 Гбайт (86%)
    Default : Да
    Forced : Нет
    Цветовой диапазон : Limited
    Основные цвета : BT.709
    Характеристики трансфера : BT.709
    Коэффициенты матрицы : BT.709
    Аудио
    Идентификатор : 2
    Формат : AC-3
    Формат/Информация : Audio Coding 3
    Расширение режима : CM (complete main)
    Параметр Endianness формата : Big
    Идентификатор кодека : A_AC3
    Продолжительность : 3 ч. 36 м.
    Вид битрейта : Постоянный
    Битрейт : 192 Кбит/сек
    Каналы : 2 канала
    Расположение каналов : Front: L R
    Частота : 44, 1 КГц
    Битовая глубина : 16 бит
    Метод сжатия : С потерями
    Размер потока : 297 Мбайт (12%)
    Default : Да
    Forced : Нет


    Военная тайна с Игорем Прокопенко (2017.11.11) WEB-DLRip [H.264/720p-LQ]
    загрузка...
    Рейтинг →
     (голосов: 1, оценка 4/5, голосовать можно 1 раз )

    Другие торренты по теме:

  • Военная тайна с Игорем Прокопенко (27.09.2014) SATRip
  • Военная тайна с Игорем Прокопенко (2014.10.04) SATRip скачать через торрент бесплатно
  • Военная тайна с Игорем Прокопенко (2014.10.11) SATRip
  • Военная тайна с Игорем Прокопенко (2014.10.18) SATRip
  • Военная тайна с Игорем Прокопенко (2014.10.25) SATRip
  • Военная тайна с Игорем Прокопенко (2014.11.15) SATRip
  • Военная тайна с Игорем Прокопенко (2014.11.29) SATRip
  • Военная тайна с Игорем Прокопенко (2014.12.06) SATRip скачать через торрент бесплатно


    • Комментарии (0):

      Информация

      Информация

        Посетители, находящиеся в группе Гости, не могут оставлять комментарии в данной новости.

        ↓ Меню




        ↓ Опрос

        Вы добавили сайт в закладки?
        Да
        Нет


        Top 10 за месяц (Передачи)

        Алексей Широков, Александр Шапочкин | Попаданец 2.0 (2017) [FB2]

        (скачиваний: 9)
        Михаил Задорнов. Лучшее - сборник лучших эстрадных номеров Михаила Задорнова за 30 лет (1984-2014) WEBRip скачать через торрент бесплатно

        (скачиваний: 8)
        Фигурное катание. Гран-при 2017-2018. 3-й Этап. Кубок Китая 2017. Пекин (Китай). 2 День (04.11.2017) HDTV [H.264 / 1080i-LQ]

        (скачиваний: 6)
        Орел и решка. Перезагрузка (2017.11.07) WEB-DL [H.264 / 720p-LQ] (сезон 14: Ибица. Испания)

        (скачиваний: 6)
        Журнал | Всему свету по совету №1 (228) (январь 2017) [PDF]

        (скачиваний: 6)
        Трэвис Хэйли. Адаптивный автомат Калашникова / Travis Haley: Adaptive Kalash (2011) WEBRip [720p-LQ] скачать через торрент бесплатно

        (скачиваний: 5)
        Святитель Феофан Затворник | Собрание сочинений [69 Томов] (2008) [FB2]

        (скачиваний: 5)
        Горная бригада (2014) HDTVRip [720p-LQ] [Серии: 1-12 из 12] скачать через торрент бесплатно

        (скачиваний: 4)
        Айрэн По, Джули По | Нумерология, как профессия. Мы из матрицы. Книга 1 (2016) [DJVU]

        (скачиваний: 4)
        Журнал | Рецепты на бис. Спецвыпуск №1 (19) (2017) [PDF]

        (скачиваний: 4)