.
Авторизация | Регистрация
Хочешь лучшие торренты? Добавь свой email!
Добавить

Торрент скачать бесплатно

» » Территория заблуждений с Игорем Прокопенко (2017.11.11) WEB-DLRip [H.264 / 720p-LQ] торрент скачать бесплатно




    Территория заблуждений с Игорем Прокопенко (2017.11.11) WEB-DLRip [H.264 / 720p-LQ] торрент скачать бесплатно

    Опубликовал: Админ | Дата: 12-11-2017, 05:00 | Просмотров: 0

    Телекомпания: РЕН
    Жанр: Документальный

    Описание

    Каждый день приносит научные сенсации, которые противоречат нашим привычным знаниям. Невероятные находки археологов опровергают учебники истории. Новейшие открытия астрономов начисто ломают знания о жизни Вселенной. А последние исследования медиков - рушат, казалось бы, незыблемые истины даже о жизни и смерти. В результате даже ученые все чаще приходят к неутешительному выводу - знания, накопленные человечеством на сегодняшний день - не более, чем территория заблуждений.
    Релиз от: svlesin
    Продолжительность: 01: 23: 36
    Качество видео: WEB-DLRip
    Субтитры: Отсутствуют
    Видео: AVC, 1280x720 (16: 9), 25.000 fps, 1 268 Kbps (0.055 bit/pixel)
    Аудио: AC-3, 44.1 KHz, 2 ch, 192 Kbps, CBR
    Код: выделить все
    Общее
    Уникальный идентификатор : 176461555107992774596580970431552928085 (0x84C142619651501ABC2A8D27EA47B955)
    Полное имя : D:[1]Территория заблужденийТерритория заблуждений с Игорем Прокопенко (2017.11.11)_720.mkv
    Формат : Matroska
    Версия формата : Version 4/Version 2
    Размер файла : 891 Мбайт
    Продолжительность : 1 ч. 23 м.
    Общий поток : 1489 Кбит/сек
    Название фильма : Территория заблуждений с Игорем Прокопенко (2017.11.11)_720_nnm-club.name
    Дата кодирования : UTC 2017-11-11 11:24:32
    Программа кодирования : mkvmerge v17.0.0 (\'Be Ur Friend\') 64-bit
    Библиотека кодирования : libebml v1.3.5 + libmatroska v1.4.8
    DURATION : 01:23:36.346000000
    NUMBER_OF_FRAMES : 144024
    NUMBER_OF_BYTES : 120392306
    _STATISTICS_WRITING_APP : mkvmerge v17.0.0 (\'Be Ur Friend\') 64-bit
    _STATISTICS_WRITING_DATE_UTC : 2017-11-11 11:24:32
    _STATISTICS_TAGS : BPS DURATION NUMBER_OF_FRAMES NUMBER_OF_BYTES
    Видео
    Идентификатор : 1
    Формат : AVC
    Формат/Информация : Advanced Video Codec
    Профиль формата :Main@L3.1
    Параметр CABAC формата : Да
    Параметр ReFrames формата : 3 кадра
    Идентификатор кодека : V_MPEG4/ISO/AVC
    Продолжительность : 1 ч. 23 м.
    Битрейт : 1268 Кбит/сек
    Ширина : 1280 пикселей
    Высота : 720 пикселей
    Соотношение сторон : 16:9
    Режим частоты кадров : Постоянный
    Частота кадров : 25, 000 кадров/сек
    Цветовое пространство : YUV
    Субдискретизация насыщенности : 4:2:0
    Битовая глубина : 8 бит
    Тип развёртки : Прогрессивная
    Бит/(Пиксели*Кадры) : 0.055
    Размер потока : 758 Мбайт (85%)
    Default : Да
    Forced : Нет
    Цветовой диапазон : Limited
    Основные цвета : BT.709
    Характеристики трансфера : BT.709
    Коэффициенты матрицы : BT.709
    Аудио
    Идентификатор : 2
    Формат : AC-3
    Формат/Информация : Audio Coding 3
    Расширение режима : CM (complete main)
    Параметр Endianness формата : Big
    Идентификатор кодека : A_AC3
    Продолжительность : 1 ч. 23 м.
    Вид битрейта : Постоянный
    Битрейт : 192 Кбит/сек
    Каналы : 2 канала
    Расположение каналов : Front: L R
    Частота : 44, 1 КГц
    Битовая глубина : 16 бит
    Метод сжатия : С потерями
    Размер потока : 115 Мбайт (13%)
    Default : Да
    Forced : Нет


    Территория заблуждений с Игорем Прокопенко (2017.11.11) WEB-DLRip [H.264/720p-LQ]
    загрузка...
    Рейтинг →
     (голосов: 1, оценка 5/5, голосовать можно 1 раз )

    Другие торренты по теме:

  • Территория заблуждений с Игорем Прокопенко (2014.09.27) SATRip
  • Территория заблуждений с Игорем Прокопенко (2014.10.04) SATRip скачать через торрент бесплатно
  • Территория заблуждений с Игорем Прокопенко (2014.10.11) SATRip
  • Территория заблуждений с Игорем Прокопенко (2014.10.18) SATRip скачать через торрент бесплатно
  • Территория заблуждений с Игорем Прокопенко (2014.10.25) SATRip скачать через торрент бесплатно
  • Территория заблуждений с Игорем Прокопенко (2014.11.14) SATRip скачать через торрент бесплатно
  • Территория заблуждений с Игорем Прокопенко (2014.12.05) SATRip
  • Территория заблуждений с Игорем Прокопенко (2014.12.12) SATRip скачать через торрент бесплатно


    • Комментарии (0):

      Информация

      Информация

        Посетители, находящиеся в группе Гости, не могут оставлять комментарии в данной новости.

        ↓ Меню




        ↓ Опрос

        Вы добавили сайт в закладки?
        Да
        Нет


        Top 10 за месяц (Передачи)

        Михаил Задорнов. Лучшее - сборник лучших эстрадных номеров Михаила Задорнова за 30 лет (1984-2014) WEBRip скачать через торрент бесплатно

        (скачиваний: 7)
        Журнал | Всему свету по совету №1 (228) (январь 2017) [PDF]

        (скачиваний: 6)
        Фигурное катание. Гран-при 2017-2018. 3-й Этап. Кубок Китая 2017. Пекин (Китай). 2 День (04.11.2017) HDTV [H.264 / 1080i-LQ]

        (скачиваний: 6)
        Трэвис Хэйли. Адаптивный автомат Калашникова / Travis Haley: Adaptive Kalash (2011) WEBRip [720p-LQ] скачать через торрент бесплатно

        (скачиваний: 5)
        Святитель Феофан Затворник | Собрание сочинений [69 Томов] (2008) [FB2]

        (скачиваний: 5)
        Орел и решка. Перезагрузка (2017.11.07) WEB-DL [H.264 / 720p-LQ] (сезон 14: Ибица. Испания)

        (скачиваний: 4)
        Николай Ягодкин | Технология постановки навыков (2013) PCRec [H.264]

        (скачиваний: 4)
        Журнал | Рецепты на бис. Спецвыпуск №1 (19) (2017) [PDF]

        (скачиваний: 4)
        Айрэн По, Джули По | Нумерология, как профессия. Мы из матрицы. Книга 1 (2016) [DJVU]

        (скачиваний: 4)
        Comedy Club (2010-2014) SATRip / WEB-DLRip [Выпуск: 201-363] скачать через торрент бесплатно

        (скачиваний: 4)