.
Авторизация | Регистрация
Хочешь лучшие торренты? Добавь свой email!
Добавить

Торрент скачать бесплатно

» » Привычный яд / Notre poison quotidien / Our daily poison (2011) DVB торрент скачать бесплатно




    Привычный яд / Notre poison quotidien / Our daily poison (2011) DVB торрент скачать бесплатно

    Опубликовал: Админ | Дата: 12-11-2017, 05:00 | Просмотров: 0

    Производство: Франция, Бельгия, Канада, Швейцария, США, Аргентина, Финляндия
    Жанр: Документальный
    Режиссер: Мари Робин

    Описание

    Фильм для всех, кто обеспокоен общественным здоровьем. Глубокое исследование повседневных продуктов питания и системы, в которых они регулируются. Мари-Моник удается поговорить с регуляторами и уважаемыми исследователями по всей Северной Америке и Европе.
    В фильме показаны многие способы, с помощью которых мы сталкиваемся с колоссально большим набором химических веществ в нашей повседневной жизни - от пестицидов, которыми опрыскивают наши плодовые культуры до добавок и пластмасс, которые загрязняют нашу пищу, и их последствия со временем приводят к сбоям даже в гормональной системе.
    Наш ежедневный яд следует следам синтетических молекул в нашей среде и нашей пище, Мари-Моник прослеживает уродливую историю промышленного химического производства, а также дырявой регуляторной системы для химических продуктов, которые все еще действует сегодня - в ущерб потребителям и рабочим , Собирание научных исследований, экспертных показаний, и интервью с фермерами, страдающими острым хроническим отравлением, Робин показывает горький пример того, как корпоративные интересы и наше невежество могут стоить нам жизни.

    Продолжительность: 01: 53: 55
    Качество видео: DVBRip
    Перевод: Двуголосый закадровый, профессиональный
    Видео: MPEG-2, 720х576@768х576, ~ 3955 Kbps
    Аудио: MP2, 2 ch, 256 Кбит/с

    Общее
    Полное имя : D: Privychnyy.yad.2.iz.2.MPEG.2011.DVB.Generalfilm2 Привычный яд.mpg
    Формат : MPEG-PS
    Размер файла : 1, 74 Гбайт
    Продолжительность : 57 м. 54 с.
    Режим общего битрейта : Переменный
    Общий поток : 4296 Кбит/сек
    Видео
    Идентификатор : 224 (0xE0)
    Формат : MPEG Video
    Версия формата : Version 2
    Профиль формата : Main@Main
    Параметр BVOP формата : Да
    Параметр матрицы формата : Выборочная
    Параметр GOP формата : M=3, N=15
    Продолжительность : 57 м. 54 с.
    Вид битрейта : Переменный
    Битрейт : 3955 Кбит/сек
    Максимальный битрейт : 7000 Кбит/сек
    Ширина : 720 пикселей
    Высота : 576 пикселей
    Соотношение сторон : 4: 3
    Частота кадров : 25, 000 кадров/сек
    Стандарт вещания : PAL
    Цветовое пространство : YUV
    Субдискретизация насыщенности : 4: 2: 0
    Битовая глубина : 8 бит
    Тип развёртки : Прогрессивная
    Порядок развёртки : Нижнее поле первое
    Метод сжатия : С потерями
    Бит/(Пиксели*Кадры) : 0.381
    Временной код первого кадра : 00: 00: 00: 00
    Оригинал временного кода : Group of pictures t_head
    GOP, открыто/закрыто : Открыто
    GOP, открыто/закрыто на первом кадре : Закрыто
    Размер потока : 1, 60 Гбайт (92%)
    Аудио
    Идентификатор : 193 (0xC1)
    Формат : MPEG Audio
    Версия формата : Version 1
    Профиль формата : Layer 2
    Продолжительность : 57 м. 54 с.
    Вид битрейта : Постоянный
    Битрейт : 256 Кбит/сек
    Каналы : 2 канала
    Частота : 48, 0 КГц
    Метод сжатия : С потерями
    Размер потока : 106 Мбайт (6%)

    Скриншоты для ознакомления



    Все одноименные релизы в Клубе
    Время раздачи: 24/7 (круглосуточно) (до появления первых 3-5 скачавших)


    Привычный яд/Notre poison quotidien/Our daily poison (2011) DVB
    загрузка...
    Рейтинг →
     (голосов: 1, оценка 4/5, голосовать можно 1 раз )

    Другие торренты по теме:



      Комментарии (0):

      Информация

      Информация

        Посетители, находящиеся в группе Гости, не могут оставлять комментарии в данной новости.

        ↓ Меню




        ↓ Опрос

        Вы добавили сайт в закладки?
        Да
        Нет


        Top 10 за месяц (Передачи)

        Михаил Задорнов. Лучшее - сборник лучших эстрадных номеров Михаила Задорнова за 30 лет (1984-2014) WEBRip скачать через торрент бесплатно

        (скачиваний: 7)
        Фигурное катание. Гран-при 2017-2018. 3-й Этап. Кубок Китая 2017. Пекин (Китай). 2 День (04.11.2017) HDTV [H.264 / 1080i-LQ]

        (скачиваний: 6)
        Журнал | Всему свету по совету №1 (228) (январь 2017) [PDF]

        (скачиваний: 6)
        Святитель Феофан Затворник | Собрание сочинений [69 Томов] (2008) [FB2]

        (скачиваний: 5)
        Трэвис Хэйли. Адаптивный автомат Калашникова / Travis Haley: Adaptive Kalash (2011) WEBRip [720p-LQ] скачать через торрент бесплатно

        (скачиваний: 5)
        Айрэн По, Джули По | Нумерология, как профессия. Мы из матрицы. Книга 1 (2016) [DJVU]

        (скачиваний: 4)
        Орел и решка. Перезагрузка (2017.11.07) WEB-DL [H.264 / 720p-LQ] (сезон 14: Ибица. Испания)

        (скачиваний: 4)
        Comedy Club (2010-2014) SATRip / WEB-DLRip [Выпуск: 201-363] скачать через торрент бесплатно

        (скачиваний: 4)
        Николай Ягодкин | Технология постановки навыков (2013) PCRec [H.264]

        (скачиваний: 4)
        Журнал | Рецепты на бис. Спецвыпуск №1 (19) (2017) [PDF]

        (скачиваний: 4)