.
Авторизация | Регистрация
Хочешь лучшие торренты? Добавь свой email!
Добавить

Торрент скачать бесплатно

» » Жизнь Льва Троцкого. Враг номер один (2017) HDTVRip [H.264 / 720p-LQ] торрент скачать бесплатно




    Жизнь Льва Троцкого. Враг номер один (2017) HDTVRip [H.264 / 720p-LQ] торрент скачать бесплатно

    Опубликовал: Админ | Дата: 12-11-2017, 05:00 | Просмотров: 0

    Телекомпания: 1 канал HD
    Жанр: Документальный, История, Биография, Политика

    Описание

    Наш фильм — журналистское расследование трагедии семьи Льва Троцкого. В автобиографии, вышедшей незадолго до смерти, Троцкий оставил код своей судьбы: В моей личной жизни нет ничего такого особенного, о чем можно было сказать, не упоминая революционную деятельность. Как революционная одержимость одного из вождей Октября отразилась на его близких — тех, кого любил и предавал? Что вело их к гибели: мстительность Сталина, или сам Троцкий прокладывал дорогу к смерти себе и всем, кто оказывался рядом? В эксклюзивном интервью авторам фильма об этом рассказывают внуки Троцкого — Всеволод Волков и Юлия Аксельрод. Ведущий расследования — Сергей Медведев.
    Его именем называли заводы и города. Творец Октябрьского переворота, предводитель победоносной Красной Армии, ближайший соратник Ленина, неистовый борец за светлое будущее всего человечества — товарищ Лев Троцкий! Но уже после первых его свершений неосторожно высказанная симпатия к этому человеку грозила тюрьмой и даже расстрелом.
    Павел Судоплатов — один из руководителей операции Утка, целью которой было устранение Троцкого, - вспоминает: Для нас Троцкий был враг номер один, из этого мы исходили.
    Релиз от: balabanovi
    Продолжительность: 00: 51: 52
    Качество видео: HDTVRip
    Видео: AVC/H.264, 1280х720, ~1600 Kbps
    Аудио: AC3, 2 ch, 128 Kbps

    General
    Unique ID : 326611703500532850781824647435601680048 (0xF5B72041446E9DE729809BD7874D96B0)
    Complete name : D: ВидеоЖизнь Льва Троцкого. Враг номер один.mkv
    Format : Matroska
    Format version : Version 4/Version 2
    File size : 640 MiB
    Duration : 51mn 52s
    Overall bit rate : 1 725 Kbps
    Writing application : Lavf57.41.100
    Writing library : Lavf57.41.100
    Video
    ID : 1
    Format : AVC
    Format/Info : Advanced Video Codec
    Format profile : High@L3.1
    Format settings, CABAC : Yes
    Format settings, ReFrames : 4 frames
    Codec ID : V_MPEG4/ISO/AVC
    Duration : 51mn 52s
    Bit rate : 1 600 Kbps
    Width : 1 280 pixels
    Height : 720 pixels
    Display aspect ratio : 16: 9
    Frame rate mode : Constant
    Frame rate : 24.000 fps
    Color space : YUV
    Chroma subsampling : 4: 2: 0
    Bit depth : 8 bits
    Scan type : Progressive
    Bits/(Pixel*Frame) : 0.072
    Stream size : 580 MiB (91%)
    Writing library : x264 core 148
    Encoding settings : cabac=1/ref=3/deblock=1: 0: 0/analyse=0x3: 0x113/me=hex/subme=7/psy=1/psy_rd=1.00: 0.00/mixed_ref=1/me_range=16/chroma_me=1/trellis=1/8x8dct=1/cqm=0/deadzone=21, 11/fast_pskip=1/chroma_qp_offset=-2/threads=12/lookahead_threads=2/sliced_threads=0/nr=0/decimate=1/interlaced=0/bluray_compat=0/constrained_intra=0/bframes=3/b_pyramid=2/b_adapt=1/b_bias=0/direct=1/weightb=1/open_gop=0/weightp=2/keyint=250/keyint_min=24/scenecut=40/intra_refresh=0/rc_lookahead=40/rc=abr/mbtree=1/bitrate=1600/ratetol=1.0/qcomp=0.60/qpmin=0/qpmax=69/qpstep=4/ip_ratio=1.40/aq=1: 1.00
    Default : Yes
    Forced : No
    DURATION : 00: 51: 52.917000000
    Audio
    ID : 2
    Format : AC-3
    Format/Info : Audio Coding 3
    Mode extension : CM (complete main)
    Format settings, Endianness : Big
    Codec ID : A_AC3
    Duration : 51mn 52s
    Bit rate mode : Constant
    Bit rate : 128 Kbps
    Channel(s) : 2 channels
    Channel positions : Front: L R
    Sampling rate : 48.0 KHz
    Bit depth : 32 bits
    Compression mode : Lossy
    Delay relative to video : 29ms
    Stream size : 47.5 MiB (7%)
    Writing library : Lavc57.48.101 ac3
    Default : Yes
    Forced : No
    DURATION : 00: 51: 52.784000000

    Скриншоты для ознакомления




    Все одноименные релизы в Клубе
    Время раздачи: 24/7 (круглосуточно) до первых 5-ти сидов - потом по возможности


    Жизнь Льва Троцкого. Враг номер один (2017) HDTVRip [H.264/720p-LQ]
    загрузка...
    Рейтинг →
     (голосов: 1, оценка 3/5, голосовать можно 1 раз )

    Другие торренты по теме:

  • Знать будущее. Жизнь после Ванги. История 12. Вторая жизнь (2014.11.19) SATRip скачать через торрент бесплатно
  • Жизнь морских обитателей (Морская жизнь) / Fish Life (2009-2010) HDTVRip [H.264 / 720p] [1-12 серия из 12] скачать через торрент бесплатно
  • Вера Холодная: Миражи / Дети века / Жизнь за жизнь / Молчи, грусть, молчи (1915-1918) DVDRip [H.264] [hand made colored] скачать через торрент бесплатно
  • Менее привычная жизнь / Жизнь хуже обычной / A Life Less Ordinary (1997) HDTV [H.264 / 1080i] скачать через торрент бесплатно
  • Менее привычная жизнь ( Жизнь хуже обычной ) / A Life Less Ordinary (1997) BDRemux [H.264 / 1080p]
  • Шарон Моалем | Властелин ДНК. Как гены меняют нашу жизнь, а наша жизнь – гены (2016) [EPUB, FB2, MOBI]
  • Михаил Никитин. Лекция «Возможна ли жизнь без воды и жизнь без углерода» (2016) WEBRip [H.264] [MP4|1280x720]
  • Айше Берсел | Жизнь как конструктор. Выдели главное, убери лишнее и создай жизнь, которая тебя вдохновляет (2016) [PDF]


    • Комментарии (0):

      Информация

      Информация

        Посетители, находящиеся в группе Гости, не могут оставлять комментарии в данной новости.

        ↓ Меню




        ↓ Опрос

        Вы добавили сайт в закладки?
        Да
        Нет


        Top 10 за месяц (Передачи)

        Алексей Широков, Александр Шапочкин | Попаданец 2.0 (2017) [FB2]

        (скачиваний: 9)
        Михаил Задорнов. Лучшее - сборник лучших эстрадных номеров Михаила Задорнова за 30 лет (1984-2014) WEBRip скачать через торрент бесплатно

        (скачиваний: 8)
        Фигурное катание. Гран-при 2017-2018. 3-й Этап. Кубок Китая 2017. Пекин (Китай). 2 День (04.11.2017) HDTV [H.264 / 1080i-LQ]

        (скачиваний: 7)
        Орел и решка. Перезагрузка (2017.11.07) WEB-DL [H.264 / 720p-LQ] (сезон 14: Ибица. Испания)

        (скачиваний: 6)
        Журнал | Всему свету по совету №1 (228) (январь 2017) [PDF]

        (скачиваний: 6)
        Святитель Феофан Затворник | Собрание сочинений [69 Томов] (2008) [FB2]

        (скачиваний: 5)
        Трэвис Хэйли. Адаптивный автомат Калашникова / Travis Haley: Adaptive Kalash (2011) WEBRip [720p-LQ] скачать через торрент бесплатно

        (скачиваний: 5)
        Comedy Club (2010-2014) SATRip / WEB-DLRip [Выпуск: 201-363] скачать через торрент бесплатно

        (скачиваний: 4)
        Айрэн По, Джули По | Нумерология, как профессия. Мы из матрицы. Книга 1 (2016) [DJVU]

        (скачиваний: 4)
        Орел и решка. Перезагрузка (2017.10.30) WEB-DL [H.264 / 720p-LQ] (сезон 14: Барселона. Испания)

        (скачиваний: 4)