.
Авторизация | Регистрация
Хочешь лучшие торренты? Добавь свой email!
Добавить

Торрент скачать бесплатно

» » Ты супер! Танцы (2017.11.11) HDTV [H.264 / 720p-LQ] (выпуск 10) торрент скачать бесплатно




    Ты супер! Танцы (2017.11.11) HDTV [H.264 / 720p-LQ] (выпуск 10) торрент скачать бесплатно

    Опубликовал: Админ | Дата: 12-11-2017, 05:00 | Просмотров: 0

    Телекомпания: НТВ
    Жанр: ТВ-шоу, Музыкальный
    Ведущие: Александр Олешко
    Жюри: Егор Дружинин, Кристина Кретова, Евгений Папунаишвили и Анастасия Заворотнюк.

    Описание

    НТВ представляет проект Ты супер! Танцы, который, мы надеемся, поможет изменить к лучшему жизнь детей, оставшихся без попечения родителей. Детей, которые увлекаются танцами. Участие в проекте — это шанс заявить о себе на широкую аудиторию, возможность поработать с лучшими педагогами страны, получить незабываемые впечатления, завести новых друзей и познакомиться со своими кумирами.
    Конкурс Ты супер! Танцы будет состоять из нескольких этапов. В первом отборочном туре дети исполнят хореографические номера в танцевальных стилях, в которых они чувствуют себя уверенно. Сейчас конкурсанты — никому неизвестные мальчишки и девчонки, но скоро о них узнает вся страна!
    Премьера проекта Ты супер! Танцы — 2 сентября на НТВ.
    Продолжительность: 02: 20: 23
    Качество видео: HDTV
    Видео: AVC/H.264, 1280x720, ~1982 Kbps
    Аудио: AAC, 2 ch, 126 Kbps

    Общее
    Уникальный идентификатор : 196611662808354409938762939454684204976 (0x93EA0764CCD3EE259EF7FE7CB19D0FB0)
    Полное имя : Ты супер! Танцы. Выпуск 10 (2017.11.11).mkv
    Формат : Matroska
    Версия формата : Version 4/Version 2
    Размер файла : 2, 07 Гбайт
    Продолжительность : 2 ч. 20 м.
    Общий поток : 2109 Кбит/сек
    Дата кодирования : UTC 2017-11-11 20: 34: 21
    Программа кодирования : mkvmerge v17.0.0 (\'Be Ur Friend\') 64-bit
    Библиотека кодирования : libebml v1.3.5 + libmatroska v1.4.8
    Видео
    Идентификатор : 1
    Формат : AVC
    Формат/Информация : Advanced Video Codec
    Профиль формата : Main@L3.1
    Настройки формата : CABAC/3 Ref Frames
    Параметр CABAC формата : Да
    Параметр RefFrames формата : 3 кадра
    Идентификатор кодека : V_MPEG4/ISO/AVC
    Продолжительность : 2 ч. 20 м.
    Битрейт : 1982 Кбит/сек
    Ширина : 1280 пикселей
    Высота : 720 пикселей
    Соотношение сторон : 16: 9
    Режим частоты кадров : Постоянный
    Частота кадров : 25, 000 кадров/сек
    Цветовое пространство : YUV
    Субдискретизация насыщенности : 4: 2: 0
    Битовая глубина : 8 бит
    Тип развёртки : Прогрессивная
    Бит/(Пиксели*Кадры) : 0.086
    Размер потока : 1, 94 Гбайт (94%)
    Default : Да
    Forced : Нет
    Цветовой диапазон : Limited
    Основные цвета : BT.709
    Характеристики трансфера : BT.709
    Коэффициенты матрицы : BT.709
    Аудио
    Идентификатор : 2
    Формат : AAC
    Формат/Информация : Advanced Audio Codec
    Профиль формата : LC
    Идентификатор кодека : A_AAC-2
    Продолжительность : 2 ч. 20 м.
    Битрейт : 126 Кбит/сек
    Каналы : 2 канала
    Расположение каналов : Front: L R
    Частота : 44, 1 КГц
    Частота кадров : 43, 066 кадра/сек (1024 SPF)
    Метод сжатия : С потерями
    Размер потока : 126 Мбайт (6%)
    Default : Да
    Forced : Нет

    Скриншоты для ознакомления



    Все одноименные релизы в Клубе
    Время раздачи: 24/7 (до появления первых 3-5 скачавших)


    Ты супер! Танцы (2017.11.11) HDTV [H.264/720p-LQ] (выпуск 10)
    загрузка...
    Рейтинг →
     (голосов: 1, оценка 3/5, голосовать можно 1 раз )

    Другие торренты по теме:

  • Ты супер! Танцы (2017.09.02) SATRip (выпуск 1)
  • Ты супер! Танцы (2017.09.09) SATRip (выпуск 2)
  • Ты супер! Танцы (2017.09.16) SATRip (выпуск 3)
  • Ты супер! Танцы (2017.09.23) SATRip (выпуск 4)
  • Ты супер! Танцы (2017.09.30) SATRip (выпуск 5)
  • Ты супер! Танцы (2017.10.14) SATRip (выпуск 7)
  • Ты супер! Танцы (2017.10.07) SATRip (выпуск 6)
  • Ты супер! Танцы (2017.10.21) HDTV [H.264 / 720p-LQ] (выпуск 8)


    • Комментарии (0):

      Информация

      Информация

        Посетители, находящиеся в группе Гости, не могут оставлять комментарии в данной новости.

        ↓ Меню




        ↓ Опрос

        Вы добавили сайт в закладки?
        Да
        Нет


        Top 10 за месяц (Передачи)

        Алексей Широков, Александр Шапочкин | Попаданец 2.0 (2017) [FB2]

        (скачиваний: 9)
        Михаил Задорнов. Лучшее - сборник лучших эстрадных номеров Михаила Задорнова за 30 лет (1984-2014) WEBRip скачать через торрент бесплатно

        (скачиваний: 8)
        Фигурное катание. Гран-при 2017-2018. 3-й Этап. Кубок Китая 2017. Пекин (Китай). 2 День (04.11.2017) HDTV [H.264 / 1080i-LQ]

        (скачиваний: 7)
        Журнал | Всему свету по совету №1 (228) (январь 2017) [PDF]

        (скачиваний: 6)
        Орел и решка. Перезагрузка (2017.11.07) WEB-DL [H.264 / 720p-LQ] (сезон 14: Ибица. Испания)

        (скачиваний: 6)
        Святитель Феофан Затворник | Собрание сочинений [69 Томов] (2008) [FB2]

        (скачиваний: 5)
        Трэвис Хэйли. Адаптивный автомат Калашникова / Travis Haley: Adaptive Kalash (2011) WEBRip [720p-LQ] скачать через торрент бесплатно

        (скачиваний: 5)
        Айрэн По, Джули По | Нумерология, как профессия. Мы из матрицы. Книга 1 (2016) [DJVU]

        (скачиваний: 4)
        Comedy Club (2010-2014) SATRip / WEB-DLRip [Выпуск: 201-363] скачать через торрент бесплатно

        (скачиваний: 4)
        Горная бригада (2014) HDTVRip [720p-LQ] [Серии: 1-12 из 12] скачать через торрент бесплатно

        (скачиваний: 4)