.
Авторизация | Регистрация
Хочешь лучшие торренты? Добавь свой email!
Добавить

Торрент скачать бесплатно

» » Пресс-конференция Владимира Путина на саммите АТЭС (11.11.2017) WEBRip [H.264 / 720p-LQ] торрент скачать бесплатно




    Пресс-конференция Владимира Путина на саммите АТЭС (11.11.2017) WEBRip [H.264 / 720p-LQ] торрент скачать бесплатно

    Опубликовал: Админ | Дата: 12-11-2017, 05:00 | Просмотров: 0

    Производство: Президент.РФ
    Жанр: Телепередача

    Описание

    Во Вьетнаме завершил работу 25‑й саммит форума Азиатско-тихоокеанское экономическое сотрудничество.
    В кулуарах саммита глава Российского государства общался с Президентом США Дональдом Трампом. Лидеры двух стран одобрили совместное заявление по Сирии.
    По окончании работы форума Владимир Путин ответил на вопросы российских и иностранных журналистов.
    Продолжительность: 00: 28: 51
    Качество видео: WEBRip
    Видео: AVC/H.264, 1280x720 (16: 9), ~3016 Kbps
    Аудио: AAC, 2 ch, 128 Kbps

    General
    Unique ID : 252126968327272936929404559516469996999 (0xBDADE34771CB6F71924430DA7096ADC7)
    Complete name : D: FilmПресс-конференция Владимира Путина на саммите АТЭС.mkv
    Format : Matroska
    Format version : Version 4/Version 2
    File size : 650 MiB
    Duration : 28 min 51 s
    Overall bit rate : 3 148 kb/s
    Encoded date : UTC 2017-11-11 18: 11: 51
    Writing application : mkvmerge v17.0.0 (\'Be Ur Friend\') 64-bit
    Writing library : libebml v1.3.5 + libmatroska v1.4.8
    Cover : Yes
    Attachments : cover.png
    Video
    ID : 1
    Format : AVC
    Format/Info : Advanced Video Codec
    Format profile : Main@L3.1
    Format settings : 2 Ref Frames
    Format settings, CABAC : No
    Format settings, RefFrames : 2 frames
    Codec ID : V_MPEG4/ISO/AVC
    Duration : 28 min 51 s
    Bit rate : 3 016 kb/s
    Width : 1 280 pixels
    Height : 720 pixels
    Display aspect ratio : 16: 9
    Frame rate mode : Constant
    Frame rate : 25.000 FPS
    Color space : YUV
    Chroma subsampling : 4: 2: 0
    Bit depth : 8 bits
    Scan type : Progressive
    Bits/(Pixel*Frame) : 0.131
    Stream size : 622 MiB (96%)
    Language : Russian
    Default : Yes
    Forced : No
    Color range : Limited
    Audio
    ID : 2
    Format : AAC
    Format/Info : Advanced Audio Codec
    Format profile : LC
    Codec ID : A_AAC-2
    Duration : 28 min 51 s
    Bit rate : 128 kb/s
    Channel(s) : 2 channels
    Channel positions : Front: L R
    Sampling rate : 48.0 kHz
    Frame rate : 46.875 FPS (1024 SPF)
    Compression mode : Lossy
    Delay relative to video : -40 ms
    Stream size : 26.4 MiB (4%)
    Language : Russian
    Default : Yes
    Forced : No

    Скриншоты для ознакомления





    Все одноименные релизы в Клубе
    Время раздачи: 07: 00-23: 00 (до появления первых 3-5 скачавших)


    Пресс-конференция Владимира Путина на саммите АТЭС (11.11.2017) WEBRip [H.264/720p-LQ]
    загрузка...
    Рейтинг →
     (голосов: 1, оценка 3/5, голосовать можно 1 раз )

    Другие торренты по теме:

  • Политика. Пресс-конференция Владимира Путина (2015.12.17) SATRip скачать через торрент бесплатно
  • Пресс-конференция Владимира Путина по итогам саммита БРИКС (05.09.2017) WEBRip [H.264 / 720p-LQ]
  • Пресс-конференция Президента РФ Владимира Путина в Уфе на саммите ШОС и БРИКС (2015.07.10) SATRip скачать через торрент бесплатно


    • Комментарии (0):

      Информация

      Информация

        Посетители, находящиеся в группе Гости, не могут оставлять комментарии в данной новости.

        ↓ Меню




        ↓ Опрос

        Вы добавили сайт в закладки?
        Да
        Нет


        Top 10 за месяц (Передачи)

        Алексей Широков, Александр Шапочкин | Попаданец 2.0 (2017) [FB2]

        (скачиваний: 9)
        Михаил Задорнов. Лучшее - сборник лучших эстрадных номеров Михаила Задорнова за 30 лет (1984-2014) WEBRip скачать через торрент бесплатно

        (скачиваний: 8)
        Фигурное катание. Гран-при 2017-2018. 3-й Этап. Кубок Китая 2017. Пекин (Китай). 2 День (04.11.2017) HDTV [H.264 / 1080i-LQ]

        (скачиваний: 8)
        Журнал | Всему свету по совету №1 (228) (январь 2017) [PDF]

        (скачиваний: 6)
        Орел и решка. Перезагрузка (2017.11.07) WEB-DL [H.264 / 720p-LQ] (сезон 14: Ибица. Испания)

        (скачиваний: 6)
        Трэвис Хэйли. Адаптивный автомат Калашникова / Travis Haley: Adaptive Kalash (2011) WEBRip [720p-LQ] скачать через торрент бесплатно

        (скачиваний: 5)
        Святитель Феофан Затворник | Собрание сочинений [69 Томов] (2008) [FB2]

        (скачиваний: 5)
        Comedy Club (2010-2014) SATRip / WEB-DLRip [Выпуск: 201-363] скачать через торрент бесплатно

        (скачиваний: 4)
        Орел и решка. Перезагрузка (2017.10.30) WEB-DL [H.264 / 720p-LQ] (сезон 14: Барселона. Испания)

        (скачиваний: 4)
        Айрэн По, Джули По | Нумерология, как профессия. Мы из матрицы. Книга 1 (2016) [DJVU]

        (скачиваний: 4)