.
Авторизация | Регистрация
Хочешь лучшие торренты? Добавь свой email!
Добавить

Торрент скачать бесплатно

» » Студия Союз (2017.11.09) WEB-DLRip (выпуск 14) торрент скачать бесплатно




    Студия Союз (2017.11.09) WEB-DLRip (выпуск 14) торрент скачать бесплатно

    Опубликовал: Админ | Дата: 11-11-2017, 05:00 | Просмотров: 0

    Телекомпания: ТНТ
    Жанр: ТВ-шоу, юмор, импровизация
    Ведущие: Кирилл Коковкин, Айдар Гараев, Виктор Щетков, Александр Алымов, Артем Муратов, Елена Гущина
    Участники: Гарик Харламов, Тимур Батрутдинов, Ксения Бородина, Анна Хилькевич, Екатерина Варнава, Руслан Белый, Юлия Ахмедова, Мигель, Антон Шастун, Екатерина Решетникова, Станислав Ярушин, Александр Гудков, Сергей Матвиенко, Ольга Бузова

    Описание

    Участники шоу Студия СОЮЗ будут меряться музыкальностью, чтобы сделать зрителю очень смешно. По задумке сценаристов, на шоу работают постоянные ведущие, а также регулярно приглашаются другие звезды ТНТ. Их задача: обсудить и максимально удачно высмеять популярную в данный момент песню. На обсуждение выносится все до мелочей: текст, музыка, манера исполнения и другие аспекты музыкального выступления.
    Релиз от: svlesin
    Продолжительность: ~ 00: 47: 33
    Качество видео: WEB-DLRip
    Субтитры: Отсутствуют
    Видео: MPEG4, XviD, 720x400 (16: 9), 25.000 fps, 1 797 Kbps (0.250 bit/pixel)
    Аудио: MP3, 44.1 KHz, 2 ch, 128 Kbps, CBR
    Код: выделить все
    Общее
    Полное имя : D:[1]Студия СоюзСтудия Союз. Выпуск 14 (2017.11.09)_WEB-DLRip.avi
    Формат : AVI
    Формат/Информация : Audio Video Interleave
    Размер файла : 658 Мбайт
    Продолжительность : 47 м.
    Общий поток : 1935 Кбит/сек
    Название фильма : Studio Souz.14(2017.11.09)_nnm-club.name
    Программа кодирования : VirtualDubModRus 1.5.10.2 (build 2542/release)
    Библиотека кодирования : VirtualDubMod build 2542/release
    Видео
    Идентификатор : 0
    Формат : MPEG-4 Visual
    Профиль формата : Advanced Simple@L5
    Параметр BVOP формата : 1
    Параметр QPel формата : Нет
    Параметр GMC формата : Без точки перехода
    Параметр матрицы формата : Default (H.263)
    Идентификатор кодека : XVID
    Идентификатор кодека/Подсказка : XviD
    Продолжительность : 47 м.
    Битрейт : 1797 Кбит/сек
    Ширина : 720 пикселей
    Высота : 400 пикселей
    Соотношение сторон : 16:9
    Частота кадров : 25, 000 кадров/сек
    Цветовое пространство : YUV
    Субдискретизация насыщенности : 4:2:0
    Битовая глубина : 8 бит
    Тип развёртки : Прогрессивная
    Метод сжатия : С потерями
    Бит/(Пиксели*Кадры) : 0.250
    Размер потока : 611 Мбайт (93%)
    Библиотека кодирования : XviD 67
    Аудио
    Идентификатор : 1
    Формат : MPEG Audio
    Версия формата : Version 1
    Профиль формата : Layer 3
    Режим : Joint stereo
    Расширение режима : MS Stereo
    Идентификатор кодека : 55
    Идентификатор кодека/Подсказка : MP3
    Продолжительность : 47 м.
    Вид битрейта : Постоянный
    Битрейт : 128 Кбит/сек
    Каналы : 2 канала
    Частота : 44, 1 КГц
    Метод сжатия : С потерями
    Размер потока : 43, 5 Мбайт (7%)
    Выравнивание : Разделение по промежуткам
    Продолжительность промежутка : 40 мс. (1, 00 видеокадр)
    Время предзагрузки промежутка : 500 мс.
    Библиотека кодирования : LAME3.99.5

    Скриншоты для ознакомления



    Все одноименные релизы в Клубе
    Время раздачи: 24/7. До первых 5 скачавших.


    Студия Союз (2017.11.09) WEB-DLRip (выпуск 14)
    загрузка...
    Рейтинг →
     (голосов: 1, оценка 3/5, голосовать можно 1 раз )

    Другие торренты по теме:

  • Студия Союз (2017.11.16) WEB-DLRip (выпуск 15)
  • Студия Союз (2017.11.16) WEB-DL [H.264 / 720p-LQ] (выпуск 15)
  • Студия Союз (2017.11.16) SATRip (выпуск 15)
  • Студия Союз (2017.11.16) HDTV [H.264 / 1080p-LQ] (выпуск 15)
  • Студия Союз (2017.08.10) HDTV [H.264 / 1080p-LQ] (выпуск 1)
  • Студия Союз (2017.08.10) WEB-DL [H.264 / 720p-LQ] (выпуск 1)
  • Студия Союз (2017.08.10) SATRip (выпуск 1)
  • Студия Союз (2017.08.17) SATRip (выпуск 2)


    • Комментарии (0):

      Информация

      Информация

        Посетители, находящиеся в группе Гости, не могут оставлять комментарии в данной новости.

        ↓ Меню




        ↓ Опрос

        Вы добавили сайт в закладки?
        Да
        Нет


        Top 10 за месяц (Передачи)

        Михаил Задорнов. Лучшее - сборник лучших эстрадных номеров Михаила Задорнова за 30 лет (1984-2014) WEBRip скачать через торрент бесплатно

        (скачиваний: 8)
        Журнал | Всему свету по совету №1 (228) (январь 2017) [PDF]

        (скачиваний: 6)
        Фигурное катание. Гран-при 2017-2018. 3-й Этап. Кубок Китая 2017. Пекин (Китай). 2 День (04.11.2017) HDTV [H.264 / 1080i-LQ]

        (скачиваний: 6)
        Святитель Феофан Затворник | Собрание сочинений [69 Томов] (2008) [FB2]

        (скачиваний: 5)
        Трэвис Хэйли. Адаптивный автомат Калашникова / Travis Haley: Adaptive Kalash (2011) WEBRip [720p-LQ] скачать через торрент бесплатно

        (скачиваний: 5)
        Горная бригада (2014) HDTVRip [720p-LQ] [Серии: 1-12 из 12] скачать через торрент бесплатно

        (скачиваний: 4)
        Николай Ягодкин | Технология постановки навыков (2013) PCRec [H.264]

        (скачиваний: 4)
        Comedy Club (2010-2014) SATRip / WEB-DLRip [Выпуск: 201-363] скачать через торрент бесплатно

        (скачиваний: 4)
        Айрэн По, Джули По | Нумерология, как профессия. Мы из матрицы. Книга 1 (2016) [DJVU]

        (скачиваний: 4)
        Журнал | Рецепты на бис. Спецвыпуск №1 (19) (2017) [PDF]

        (скачиваний: 4)