.
Авторизация | Регистрация
Хочешь лучшие торренты? Добавь свой email!
Добавить

Торрент скачать бесплатно

» » Камеди Клаб в Барвихе / Комеди Клаб / Comedy Club (2017.11.10) SATRip торрент скачать бесплатно




    Камеди Клаб в Барвихе / Комеди Клаб / Comedy Club (2017.11.10) SATRip торрент скачать бесплатно

    Опубликовал: Админ | Дата: 11-11-2017, 05:00 | Просмотров: 0

    Телекомпания: ТНТ
    Жанр: Юмор
    Участники: Гарик Мартиросян, Вадим Галыгин, Павел Воля, Тимур Батрутдинов, Александр Ревва, Гавр, Олег Верещагин, Дмитрий Сорокин, Зураб Матуa, Андрей Аверин, Алексей Лихницкий, Роман Юнусов, Антон Лирник, Андрей Молочный, Александр Незлобин, Дмитрий Хрусталёв, Васильев Виктор, Сергей Бессмертный, Игорь Меерсон, Семён Слепаков, Михаил Галустян и др.

    Описание

    Comedy Club был создан в 2005 году командой КВН Новые армяне, в состав которой входили Артур Джанибекян, Артак Гаспарян, Артур Тумасян, Арташес Саркисян, Гарик Мартиросян и другие. Его идея была задумана ещё в 2001 году, когда Арташес Саркисян, побывав в США, увидел местный Comedy Club. Временами стали появляться новые участники Comedy Club, в основном из КВН. 23 апреля 2005 года Comedy Club впервые вышел в эфир телеканала ТНТ. Рейтинги программы стали бить все рекорды и это приносило программе большие доходы, на которые они стали делать другие проекты. Впоследствии они создали свою продюсерскую компанию Comedy Club Production. 15 апреля 2007 года на ТНТ был показан сотый выпуск программы. Регулярно выходят новые выпуски и другие проекты - например спецвыпуски на Первом канале, юмористические фестивали и продюсирование участниками Comedy Club проекты других телепередач. 23 апреля 2010 года Comedy Club вышло с новой музыкой и обновлённым оформлением. Также Comedy Club выходит на каналах ICTV, НТВ+ - Мир и Comedy TV.
    Как всегда, Comedy Club собрал все самое смешное, чтобы оставаться самым крутым юмористическим шоу на телевидении. Камеры готовы? Музыканты готовы? Зрители готовы? Поехали!
    Продолжительность: ~ 00: 45: 27
    Качество видео: SATRip
    Субтитры: Отсутствуют
    Реклама: Присутствуют вставки текстовой рекламы
    Видео: MPEG4, XviD, 720x400 (16: 9), 25.000 fps, 1 800 Kbps (0.250 bit/pixel)
    Аудио: MP3, 48.0 KHz, 2 ch, 128 Kbps, CBR
    Код: выделить все
    Общее
    Полное имя : D:Comedy Club (2017.11.10).avi
    Формат : AVI
    Формат/Информация : Audio Video Interleave
    Размер файла : 630 Мбайт
    Продолжительность : 45 м.
    Общий поток : 1937 Кбит/сек
    Программа кодирования : VirtualDubMod 1.5.10.3 |www.virtualdub-fr.org|| (build 2550/release)
    Библиотека кодирования : VirtualDubMod build 2550/release
    Видео
    Идентификатор : 0
    Формат : MPEG-4 Visual
    Профиль формата : Advanced Simple@L5
    Параметр BVOP формата : 2
    Параметр QPel формата : Нет
    Параметр GMC формата : Без точки перехода
    Параметр матрицы формата : Default (H.263)
    Идентификатор кодека : XVID
    Идентификатор кодека/Подсказка : XviD
    Продолжительность : 45 м.
    Битрейт : 1800 Кбит/сек
    Ширина : 720 пикселей
    Высота : 400 пикселей
    Соотношение сторон : 16:9
    Частота кадров : 25, 000 кадров/сек
    Цветовое пространство : YUV
    Субдискретизация насыщенности : 4:2:0
    Битовая глубина : 8 бит
    Тип развёртки : Прогрессивная
    Метод сжатия : С потерями
    Бит/(Пиксели*Кадры) : 0.250
    Размер потока : 585 Мбайт (93%)
    Библиотека кодирования : XviD 1.2.1 (UTC 2008-12-04)
    Аудио
    Идентификатор : 1
    Формат : MPEG Audio
    Версия формата : Version 1
    Профиль формата : Layer 3
    Режим : Joint stereo
    Расширение режима : MS Stereo
    Идентификатор кодека : 55
    Идентификатор кодека/Подсказка : MP3
    Продолжительность : 45 м.
    Вид битрейта : Постоянный
    Битрейт : 128 Кбит/сек
    Каналы : 2 канала
    Частота : 48, 0 КГц
    Метод сжатия : С потерями
    Размер потока : 41, 6 Мбайт (7%)
    Выравнивание : Соединение по промежуткам
    Продолжительность промежутка : 40 мс. (1, 00 видеокадр)
    Время предзагрузки промежутка : 504 мс.
    Библиотека кодирования : LAME3.99r
    Настройки программы : -m j -V 4 -q 9 -lowpass 17 -b 128

    Скриншоты для ознакомления



    Все одноименные релизы в Клубе
    Время раздачи: 24/7. До первых 5 скачавших.


    Камеди Клаб в Барвихе/Комеди Клаб/Comedy Club (2017.11.10) SATRip
    загрузка...
    Рейтинг →
     (голосов: 1, оценка 5/5, голосовать можно 1 раз )

    Другие торренты по теме:

  • Новый Камеди Клаб в Юрмале / Комеди Клаб / Comedy Club / Выпуск №15 (26.09.2014) WEB-DLRip
  • Камеди Клаб / Комеди Клаб / Comedy Club / Exclusive №45 (27.09.2014) WEB-DL [H.264 / 720p] [hand made 50fps]
  • Новый Камеди Клаб в Юрмале / Комеди Клаб / Comedy Cub. Выпуски 10-15 + Открытие фестиваля в Юрмале и интервью резидентов (2014.09.26) WEB-DL [H.264 / 720p-LQ] [Обновляемая]
  • Новый Камеди Клаб в Юрмале / Комеди Клаб / Comedy Club / Выпуски №10-15 (26.09.2014) SATRip [Обновляемая]
  • Камеди Клаб / Комеди Клаб / Comedy Club (10.10.2014) SATRip скачать через торрент бесплатно
  • Камеди Клаб / Комеди Клаб / Comedy Club / Спецвыпуск Лепс (10.10.2014) WEB-DL [H.264 / 720p] [hand made 50fps] скачать через торрент бесплатно
  • Камеди Клаб / Комеди Клаб / Comedy Club / Спецвыпуск Лепс (10.10.2014) WEBRip скачать через торрент бесплатно
  • Камеди Клаб / Комеди Клаб / Comedy Club / Exclusive №47 (11.10.2014) WEBRip скачать через торрент бесплатно


    • Комментарии (0):

      Информация

      Информация

        Посетители, находящиеся в группе Гости, не могут оставлять комментарии в данной новости.

        ↓ Меню




        ↓ Опрос

        Вы добавили сайт в закладки?
        Да
        Нет


        Top 10 за месяц (Передачи)

        Алексей Широков, Александр Шапочкин | Попаданец 2.0 (2017) [FB2]

        (скачиваний: 9)
        Михаил Задорнов. Лучшее - сборник лучших эстрадных номеров Михаила Задорнова за 30 лет (1984-2014) WEBRip скачать через торрент бесплатно

        (скачиваний: 8)
        Фигурное катание. Гран-при 2017-2018. 3-й Этап. Кубок Китая 2017. Пекин (Китай). 2 День (04.11.2017) HDTV [H.264 / 1080i-LQ]

        (скачиваний: 8)
        Журнал | Всему свету по совету №1 (228) (январь 2017) [PDF]

        (скачиваний: 6)
        Орел и решка. Перезагрузка (2017.11.07) WEB-DL [H.264 / 720p-LQ] (сезон 14: Ибица. Испания)

        (скачиваний: 6)
        Трэвис Хэйли. Адаптивный автомат Калашникова / Travis Haley: Adaptive Kalash (2011) WEBRip [720p-LQ] скачать через торрент бесплатно

        (скачиваний: 5)
        Святитель Феофан Затворник | Собрание сочинений [69 Томов] (2008) [FB2]

        (скачиваний: 5)
        Comedy Club (2010-2014) SATRip / WEB-DLRip [Выпуск: 201-363] скачать через торрент бесплатно

        (скачиваний: 4)
        Орел и решка. Перезагрузка (2017.10.30) WEB-DL [H.264 / 720p-LQ] (сезон 14: Барселона. Испания)

        (скачиваний: 4)
        Айрэн По, Джули По | Нумерология, как профессия. Мы из матрицы. Книга 1 (2016) [DJVU]

        (скачиваний: 4)