.
Авторизация | Регистрация
Хочешь лучшие торренты? Добавь свой email!
Добавить

Торрент скачать бесплатно

» » Открытый микрофон (2017.11.10) SATRip (сезон 2, выпуск 13) торрент скачать бесплатно




    Открытый микрофон (2017.11.10) SATRip (сезон 2, выпуск 13) торрент скачать бесплатно

    Опубликовал: Админ | Дата: 11-11-2017, 05:00 | Просмотров: 0

    Телекомпания: ТНТ
    Жанр: Юмор
    Ведущий: Андрей Бебуришвили
    Жюри: Руслан Белый, Юлия Ахмедова, Слава Комиссаренко и Тимур Каргинов

    Описание

    18 августа на ТНТ начнется 2-ой сезон любимого сериала оригинального юмористического шоу талантов – Открытый микрофон. Участниками проекта станут молодые (и не очень), никому неизвестные стендап-комики, которые будут бороться за возможность попасть в основной состав одного из самых популярных комедийных шоу в России – Stand Up на ТНТ. Несмотря на то, что многие участники Открытого микрофона не так давно занимаются стендапом, их выступления окажутся неожиданно смешными, свежими и непохожими на монологи комиков шоу Stand Up. Уже после отборочного тура станет ясно, что новички легко могут составить конкуренцию мэтрам в жанре стендап и даже перетянуть одеяло популярности на себя. Насколько реальна эта угроза - судить зрителям Открытого микрофона.
    Открытый микрофон - это не очередной развлекательный проект, это социальный лифт для комиков, работающих в самом сложном и откровенном юмористическом жанре. Все, о чем рассказывают эти ребята, основано на их реальной жизни и переживаниях. И здесь не может быть запретных тем или сторонней редактуры – только правда, только острые шутки, только стендап в Открытом микрофоне на ТНТ.
    Продолжительность: 00: 48: 43
    Качество видео: SATRip
    Субтитры: Отсутствуют
    Реклама: Присутствуют вставки текстовой рекламы
    Видео: MPEG4, XviD, 720x400 (16: 9), 25.000 fps, 1 800 Kbps (0.250 bit/pixel)
    Аудио: MP3, 48.0 KHz, 2 ch, 128 Kbps, CBR
    Код: выделить все
    Общее
    Полное имя : D:[1]Открытый микрофонОткрытый микрофон. Сезон 2. Выпуск 13 (2017.11.10).avi
    Формат : AVI
    Формат/Информация : Audio Video Interleave
    Размер файла : 675 Мбайт
    Продолжительность : 48 м.
    Общий поток : 1937 Кбит/сек
    Программа кодирования : VirtualDubMod 1.5.10.3 |www.virtualdub-fr.org|| (build 2550/release)
    Библиотека кодирования : VirtualDubMod build 2550/release
    Видео
    Идентификатор : 0
    Формат : MPEG-4 Visual
    Профиль формата : Advanced Simple@L5
    Параметр BVOP формата : 2
    Параметр QPel формата : Нет
    Параметр GMC формата : Без точки перехода
    Параметр матрицы формата : Default (H.263)
    Идентификатор кодека : XVID
    Идентификатор кодека/Подсказка : XviD
    Продолжительность : 48 м.
    Битрейт : 1800 Кбит/сек
    Ширина : 720 пикселей
    Высота : 400 пикселей
    Соотношение сторон : 16:9
    Частота кадров : 25, 000 кадров/сек
    Цветовое пространство : YUV
    Субдискретизация насыщенности : 4:2:0
    Битовая глубина : 8 бит
    Тип развёртки : Прогрессивная
    Метод сжатия : С потерями
    Бит/(Пиксели*Кадры) : 0.250
    Размер потока : 627 Мбайт (93%)
    Библиотека кодирования : XviD 1.2.1 (UTC 2008-12-04)
    Аудио
    Идентификатор : 1
    Формат : MPEG Audio
    Версия формата : Version 1
    Профиль формата : Layer 3
    Режим : Joint stereo
    Расширение режима : MS Stereo
    Идентификатор кодека : 55
    Идентификатор кодека/Подсказка : MP3
    Продолжительность : 48 м.
    Вид битрейта : Постоянный
    Битрейт : 128 Кбит/сек
    Каналы : 2 канала
    Частота : 48, 0 КГц
    Метод сжатия : С потерями
    Размер потока : 44, 6 Мбайт (7%)
    Выравнивание : Соединение по промежуткам
    Продолжительность промежутка : 40 мс. (1, 00 видеокадр)
    Время предзагрузки промежутка : 504 мс.
    Библиотека кодирования : LAME3.99r
    Настройки программы : -m j -V 4 -q 9 -lowpass 17 -b 128
    · Отбор в команды
    Начинающие комики выступят перед жюри со своим стендапом. Участник проходит в команду, если его выбрал хотя бы один из наставников. К концу этапа будет сформировано 4 команды по 8 человек, которые и начнут борьбу за главный приз проекта.
    · Дуэли
    Участникам предстоит поработать со своими наставниками и написать одно новое выступление. В каждой программе на сцену поднимутся по 2 участника от каждой команды. По итогам выступления наставник должен будет оставить в проекте только одного из них.
    · Концерты
    Каждая команда готовит концерт с участием всех комиков. Один выпуск – один концерт каждой команды. В конце программы наставник выберет того, кто покинет шоу.
    · Полуфинал
    Комики борются за право попасть в финал Открытого микрофона. Как всегда, выступления им помогают готовить наставники. В финал проходят по два участника от каждой команды.
    · Финал
    8 финалистов выйдут на легендарную сцену проекта Stand Up на ТНТ! Каждый комик покажет свое финальное выступление. Члены жюри совместно выберут победителя первого сезон любимого сериалаа шоу Открытый микрофон и нового постоянного комика проекта StandUp на ТНТ!

    Скриншоты для ознакомления



    Все одноименные релизы в Клубе
    Время раздачи: 24/7. До первых 5 скачавших.


    Открытый микрофон (2017.11.10) SATRip (сезон 2, выпуск 13)
    загрузка...
    Рейтинг →
     (голосов: 1, оценка 4/5, голосовать можно 1 раз )

    Другие торренты по теме:



      Комментарии (0):

      Информация

      Информация

        Посетители, находящиеся в группе Гости, не могут оставлять комментарии в данной новости.

        ↓ Меню




        ↓ Опрос

        Вы добавили сайт в закладки?
        Да
        Нет


        Top 10 за месяц (Передачи)

        Алексей Широков, Александр Шапочкин | Попаданец 2.0 (2017) [FB2]

        (скачиваний: 9)
        Михаил Задорнов. Лучшее - сборник лучших эстрадных номеров Михаила Задорнова за 30 лет (1984-2014) WEBRip скачать через торрент бесплатно

        (скачиваний: 8)
        Фигурное катание. Гран-при 2017-2018. 3-й Этап. Кубок Китая 2017. Пекин (Китай). 2 День (04.11.2017) HDTV [H.264 / 1080i-LQ]

        (скачиваний: 6)
        Орел и решка. Перезагрузка (2017.11.07) WEB-DL [H.264 / 720p-LQ] (сезон 14: Ибица. Испания)

        (скачиваний: 6)
        Журнал | Всему свету по совету №1 (228) (январь 2017) [PDF]

        (скачиваний: 6)
        Трэвис Хэйли. Адаптивный автомат Калашникова / Travis Haley: Adaptive Kalash (2011) WEBRip [720p-LQ] скачать через торрент бесплатно

        (скачиваний: 5)
        Святитель Феофан Затворник | Собрание сочинений [69 Томов] (2008) [FB2]

        (скачиваний: 5)
        Горная бригада (2014) HDTVRip [720p-LQ] [Серии: 1-12 из 12] скачать через торрент бесплатно

        (скачиваний: 4)
        Айрэн По, Джули По | Нумерология, как профессия. Мы из матрицы. Книга 1 (2016) [DJVU]

        (скачиваний: 4)
        Журнал | Рецепты на бис. Спецвыпуск №1 (19) (2017) [PDF]

        (скачиваний: 4)