.
Авторизация | Регистрация
Хочешь лучшие торренты? Добавь свой email!
Добавить

Торрент скачать бесплатно

» » Хоккей. Суперсерия-2017. Молодёжные сборные (U-20). 3-й матч. Канада-OHL — Россия (09.11.2017) HDTVRip [H.264 / 720p-LQ] [hand made 50fps] торрент скачать бесплатно




    Хоккей. Суперсерия-2017. Молодёжные сборные (U-20). 3-й матч. Канада-OHL — Россия (09.11.2017) HDTVRip [H.264 / 720p-LQ] [hand made 50fps] торрент скачать бесплатно

    Опубликовал: Админ | Дата: 11-11-2017, 05:00 | Просмотров: 0

    Телекомпания: Матч! Игра HD
    Жанр: Спорт
    Комментаторы: Кирилл Корнилов, Алексей Пешнин

    Описание
    10 ноября 2017 года, пятница. 03: 00 МСК
    Суперсерия 2017. Молодёжные сборные (U-20). 3-й матч.
    Канада-OHL — Россия
    Стадион: Гарри Ламли Бейшор Комьюнити-центр (Оуэн Саунд, Канада), вместимость: 3500
    Главные судьи: Джесси Уилмот (Канада), Дарси Барчелл (Канада)
    Релиз от: REXNN52
    Продолжительность: 02: 09: 20
    Качество видео: HDTVRip
    Язык озвучки: Русский
    Субтитры: отсутствуют
    Видео: AVC/H.264, 1280x720 (16: 9), ~3523 Kbps, 50 fps
    Аудио: AAC, 2 ch, 48 kHz, ~192 Kbps

    Общее
    Уникальный идентификатор : 236579390606189334544288105422541463806 (0xB1FB8883AF09B1EE830B5D1FAEB2A0FE)
    Полное имя : F: SPORTХоккей(09.11.2017)_Суперсерия-2017.Молодежные сборные (U20).3. Канада-OHL - Россия.mkv
    Формат : Matroska
    Версия формата : Version 4/Version 2
    Размер файла : 3, 36 Гбайт
    Продолжительность : 2 ч. 9 м.
    Общий поток : 3719 Кбит/сек
    Дата кодирования : UTC 2017-11-10 16: 11: 12
    Программа кодирования : mkvmerge v17.0.0 (\'Be Ur Friend\') 32-bit
    Библиотека кодирования : libebml v1.3.5 + libmatroska v1.4.8
    Видео
    Идентификатор : 1
    Формат : AVC
    Формат/Информация : Advanced Video Codec
    Профиль формата : High@L3.2
    Настройки формата : CABAC/1 Ref Frames
    Параметр CABAC формата : Да
    Параметр RefFrames формата : 1 кадр
    Идентификатор кодека : V_MPEG4/ISO/AVC
    Продолжительность : 2 ч. 9 м.
    Битрейт : 3523 Кбит/сек
    Ширина : 1280 пикселей
    Высота : 720 пикселей
    Соотношение сторон : 16: 9
    Режим частоты кадров : Постоянный
    Частота кадров : 50, 000 кадров/сек
    Цветовое пространство : YUV
    Субдискретизация насыщенности : 4: 2: 0
    Битовая глубина : 8 бит
    Тип развёртки : Прогрессивная
    Бит/(Пиксели*Кадры) : 0.076
    Размер потока : 3, 18 Гбайт (95%)
    Default : Да
    Forced : Нет
    Цветовой диапазон : Limited
    Аудио
    Идентификатор : 2
    Формат : AAC
    Формат/Информация : Advanced Audio Codec
    Профиль формата : LC
    Идентификатор кодека : A_AAC-2
    Продолжительность : 2 ч. 9 м.
    Битрейт : 192 Кбит/сек
    Каналы : 2 канала
    Расположение каналов : Front: L R
    Частота : 48, 0 КГц
    Частота кадров : 46, 875 кадров/сек (1024 SPF)
    Метод сжатия : С потерями
    Размер потока : 178 Мбайт (5%)
    Язык : Russian
    Default : Да
    Forced : Нет

    Скриншоты для ознакомления



    Все одноименные релизы в Клубе
    Время раздачи: 24/7. (Около 1 месяца.)


    Хоккей. Суперсерия-2017. Молодёжные сборные (U-20). 3-й матч. Канада-OHL — Россия (09.11.2017) HDTVRip [H.264/720p-LQ] [hand made 50fps]
    загрузка...
    Рейтинг →
     (голосов: 1, оценка 4/5, голосовать можно 1 раз )

    Другие торренты по теме:

  • Хоккей. Суперсерия-2017. Молодёжные сборные (U-20). 4-й матч. Россия — Канада-OHL (13.11.2017) HDTVRip [H.264 / 720p-LQ] [hand made 50fps]
  • Хоккей. Суперсерия - 1972. СССР - Канада. 1 матч (2008) SATRip скачать через торрент бесплатно
  • Хоккей. Суперсерия-2017. Молодёжные сборные (U-20). 2-й матч. Россия – Канада-WHL (07.11.2017) HDTVRip [H.264 / 720p-LQ] [hand made 50fps]
  • Хоккей. Суперсерия-2017. Молодёжные сборные (U-20). 1-й матч. Канада-WHL – Россия (06.11.2017) HDTVRip [H.264 / 720p-LQ] [hand made 50fps]
  • Хоккей. Молодежная Суперсерия-2016. 1-й Матч. Канада (WHL) – Россия (U20) (07.11.2016) WEB-DL [H.264 / 720p-LQ]
  • Хоккей. Молодежная Суперсерия-2016. 1-й Матч серии. Канада (WHL) – Россия (U20) (07.11.2016) HDTVRip [H.264 / 720p-LQ][hand made 50fps]
  • Хоккей. Молодежная Суперсерия-2016. 2-й Матч серии. Россия (U20) – Канада (WHL) (08.11.2016) HDTVRip [H.264 / 720p-LQ][hand made 50fps]
  • Хоккей. Молодежная Суперсерия-2016. 3-й Матч серии. Канада (OHL) – Россия (U20) (10.11.2016) HDTVRip [H.264 / 720p-LQ][hand made 50fps]


    • Комментарии (0):

      Информация

      Информация

        Посетители, находящиеся в группе Гости, не могут оставлять комментарии в данной новости.

        ↓ Меню




        ↓ Опрос

        Вы добавили сайт в закладки?
        Да
        Нет


        Top 10 за месяц (Передачи)

        Михаил Задорнов. Лучшее - сборник лучших эстрадных номеров Михаила Задорнова за 30 лет (1984-2014) WEBRip скачать через торрент бесплатно

        (скачиваний: 7)
        Фигурное катание. Гран-при 2017-2018. 3-й Этап. Кубок Китая 2017. Пекин (Китай). 2 День (04.11.2017) HDTV [H.264 / 1080i-LQ]

        (скачиваний: 6)
        Журнал | Всему свету по совету №1 (228) (январь 2017) [PDF]

        (скачиваний: 6)
        Святитель Феофан Затворник | Собрание сочинений [69 Томов] (2008) [FB2]

        (скачиваний: 5)
        Трэвис Хэйли. Адаптивный автомат Калашникова / Travis Haley: Adaptive Kalash (2011) WEBRip [720p-LQ] скачать через торрент бесплатно

        (скачиваний: 5)
        Айрэн По, Джули По | Нумерология, как профессия. Мы из матрицы. Книга 1 (2016) [DJVU]

        (скачиваний: 4)
        Орел и решка. Перезагрузка (2017.11.07) WEB-DL [H.264 / 720p-LQ] (сезон 14: Ибица. Испания)

        (скачиваний: 4)
        Comedy Club (2010-2014) SATRip / WEB-DLRip [Выпуск: 201-363] скачать через торрент бесплатно

        (скачиваний: 4)
        Николай Ягодкин | Технология постановки навыков (2013) PCRec [H.264]

        (скачиваний: 4)
        Журнал | Рецепты на бис. Спецвыпуск №1 (19) (2017) [PDF]

        (скачиваний: 4)