.
Авторизация | Регистрация
Хочешь лучшие торренты? Добавь свой email!
Добавить

Торрент скачать бесплатно

» » Формула 1. Гран-при Японии 2017. 16-й Этап. Квалификация (07.10.2017) HDTVRip [H.264 / 720p-LQ] [hand made 50fps] торрент скачать бесплатно




    Формула 1. Гран-при Японии 2017. 16-й Этап. Квалификация (07.10.2017) HDTVRip [H.264 / 720p-LQ] [hand made 50fps] торрент скачать бесплатно

    Опубликовал: Админ | Дата: 9-10-2017, 05:00 | Просмотров: 0

    Телекомпания: Россия, Матч HD
    Жанр: Спорт
    Комментаторы: Алексей Попов, Наталья Фабричнова

    Описание

    Автодром Формулы-1, расположен в городе Судзука, префектура Миэ, Япония. Был разработан Джоном Хугенхольцем (как тестовый трек для компании Honda) и открыт в 1961 году. С 1987 года автодром принимает у себя гран-при Формулы 1. Исключением стал 2007 и 2008 год, когда гонки проходили на модернизированной (известным архитектором Германом Тильке) трассе Фудзи, которая принадлежит компании Toyota.
    Сузука является достаточно уникальной трассой, так как её форма напоминает восьмёрку, а в месте пересечения используется мост.
    Сузука пользуется большой популярностью зрителей, на треке много мест для обгона, а сама конфигурация обеспечивает прекрасный обзор для зрителей. Кроме того на этапе иногда определяется победитель всего чемпионата, так как Гран При традиционно занимает место в конце календаря.

    Продолжительность: 01: 04: 26
    Качество видео: HDTVRip
    Язык озвучки: Русский
    Видео: AVC/H.264, 1280x720, ~ 4000 Kbps
    Аудио: AC3, 2 ch, 192 Kbps | Русский

    General
    Unique ID : 239294071330468192561661855913144522278 (0xB4065C9B949493E0BECC10DC319C9626)
    Complete name : D: \ТЕЛЕПЕРЕДАЧИ\FORMULA 1 - ФОРМУЛА 1\F1.Round.16.Japanese.Grand.Prix.2017\F1.Round.16.Japanese.Grand.Prix.2017-HDTVRip 720p (hand made 50fps)\F1.Round.16.Japanese.Grand.Prix.2017.Qualifying.HDTVRip.720p.mkv
    Format : Matroska
    Format version : Version 4/Version 2
    File size : 1.90 GiB
    Duration : 1 h 4 min
    Overall bit rate : 4 225 kb/s
    Encoded date : UTC 2017-10-07 07: 32: 29
    Writing application : mkvmerge v10.0.0 (\\'To Drown In You\\') 32bit
    Writing library : libebml v1.3.4 + libmatroska v1.4.5/Lavf54.63.104
    Video
    ID : 1
    Format : AVC
    Format/Info : Advanced Video Codec
    Format profile : High@L4.1
    Format settings, CABAC : Yes
    Format settings, RefFrames : 4 frames
    Format settings, GOP : M=2, N=15
    Codec ID : V_MPEG4/ISO/AVC
    Duration : 1 h 4 min
    Bit rate : 4 029 kb/s
    Width : 1 280 pixels
    Height : 720 pixels
    Display aspect ratio : 16: 9
    Frame rate mode : Constant
    Frame rate : 50.000 FPS
    Color space : YUV
    Chroma subsampling : 4: 2: 0
    Bit depth : 8 bits
    Scan type : Progressive
    Bits/(Pixel*Frame) : 0.087
    Stream size : 1.81 GiB (95%)
    Default : No
    Forced : No
    Color range : Limited
    Color primaries : BT.709
    Transfer characteristics : BT.709
    Matrix coefficients : BT.709
    Audio
    ID : 2
    Format : AC-3
    Format/Info : Audio Coding 3
    Format settings, Endianness : Big
    Codec ID : A_AC3
    Duration : 1 h 4 min
    Bit rate mode : Constant
    Bit rate : 192 kb/s
    Channel(s) : 2 channels
    Channel positions : Front: L R
    Sampling rate : 48.0 kHz
    Frame rate : 31.250 FPS (1536 SPF)
    Bit depth : 16 bits
    Compression mode : Lossy
    Stream size : 88.5 MiB (5%)
    Language : Russian
    Service kind : Complete Main
    Default : Yes
    Forced : No

    Скриншоты для ознакомления



    Все одноименные релизы в Клубе
    Время раздачи: до 3-х скачавших, далее по возможности. (до появления первых 3-5 скачавших)

    Формула 1. Гран-при Японии 2017. 16-й Этап. Квалификация (07.10.2017) HDTVRip [H.264/720p-LQ] [hand made 50fps]
    загрузка...
    Рейтинг →
     (голосов: 1, оценка 4/5, голосовать можно 1 раз )

    Другие торренты по теме:

  • Формула 1. Гран-При Сингапура. Гонка (2014) HDTVRip [H.264 / 720p] [hand made 50fps]
  • Формула 1. Гран-При Японии. Гонка (2014) HDTVRip [H.264 / 720p] [hand made 50fps] скачать через торрент бесплатно
  • Формула 1. Гран-При России. Квалификация (2014) HDTVRip [H.264 / 720p] [hand made 50fps] скачать через торрент бесплатно
  • Формула 1. Гран-При России. Гонка (2014) HDTVRip [H.264 / 720p] [hand made 50fps] скачать через торрент бесплатно
  • Формула 1. Гран-При России. Гонка (2014) HDTVRip [H.264] скачать через торрент бесплатно
  • Формула 1. Гран-При США. Квалификация (2014) HDTVRip [H.264]
  • Формула 1. Гран-При США. Гонка (2014) HDTVRip [H.264 / 720p] [hand made 50fps] скачать через торрент бесплатно
  • Формула 1. Гран-При Бразилии. Квалификация (2014) HDTVRip [H.264] скачать через торрент бесплатно


    • Комментарии (0):

      Информация

      Информация

        Посетители, находящиеся в группе Гости, не могут оставлять комментарии в данной новости.

        ↓ Меню




        ↓ Опрос

        Вы добавили сайт в закладки?
        Да
        Нет


        Top 10 за месяц (Передачи)