.
Авторизация | Регистрация
Хочешь лучшие торренты? Добавь свой email!
Добавить

Торрент скачать бесплатно

» » Хоккей. НХЛ 2017-2018. Сан-Хосе Шаркс – Филадельфия Флайерз (04.10.2017) IPTV [H.264 / 1080i] торрент скачать бесплатно




    Хоккей. НХЛ 2017-2018. Сан-Хосе Шаркс – Филадельфия Флайерз (04.10.2017) IPTV [H.264 / 1080i] торрент скачать бесплатно

    Опубликовал: Админ | Дата: 9-10-2017, 05:00 | Просмотров: 0

    Телекомпания: Eurosport Gold
    Жанр: Спорт
    Комментатор: Андрей Юртаев

    Описание
    05 октября 2017 года, четверг. 05: 30 МСК
    НХЛ 2017-2018. Регулярный чемпионат
    Сан-Хосе Шаркс – Филадельфия Флайерз
    Стадион: Эс-Эй-Пи-центр (Сан-Хосе, США), 17562 зрителя (100 % при вместимости 17562)
    Главные судьи: Кевин Поллок (Канада), Джон Макaйзек (Канада)
    Судьи на линии: Брэд Ковальчик, Дэвид Брисбуа
    Релиз от: kos___77
    Продолжительность: 01: 28: 37
    Качество видео: IPTV
    Язык озвучки: Русский, Интершум
    Субтитры: отсутствуют
    Видео: AVC/H.264, 1920x1080 (16: 9), ~10200 Kbps
    Аудио #1: MP2, 2 ch, 48 kHz, 192 Kbps | Русский
    Аудио #2: MP2, 2 ch, 48 kHz, 192 Kbps | Интершум
    Доп. информация: Канал начал трансляцию с 9-ой минуты первого периода
    Код: выделить все

    Общее
    Идентификатор : 1 (0x1)
    Полное имя : F:\SPORT\Хоккей\NHL 2017-2018\(04.10.2017)_NHL 2016-2017.RS. Philadelphia Flyers - San Jose Sharks.ts
    Формат : MPEG-TS
    Размер файла : 6, 87 Гбайт
    Продолжительность : 1 ч. 28 м.
    Режим общего битрейта : Переменный
    Общий поток : 11, 1 Мбит/сек
    Видео
    Идентификатор : 256 (0x100)
    Идентификатор меню : 1 (0x1)
    Формат : AVC
    Формат/Информация : Advanced Video Codec
    Профиль формата : High@L4
    Параметр CABAC формата : Да
    Параметр RefFrames формата : 4 кадра
    Идентификатор кодека : 27
    Продолжительность : 1 ч. 28 м.
    Битрейт : 10, 2 Мбит/сек
    Ширина : 1920 пикселей
    Высота : 1080 пикселей
    Соотношение сторон : 16:9
    Частота кадров : 25, 000 кадров/сек
    Стандарт вещания : Component
    Цветовое пространство : YUV
    Субдискретизация насыщенности : 4:2:0
    Битовая глубина : 8 бит
    Тип развёртки : MBAFF
    Метод сохранения типа развёртки : Чередующиеся поля
    Порядок развёртки : Верхнее поле первое
    Бит/(Пиксели*Кадры) : 0.196
    Размер потока : 6, 29 Гбайт (92%)
    Цветовой диапазон : Limited
    Основные цвета : BT.709
    Характеристики трансфера : BT.709
    Коэффициенты матрицы : BT.709
    Аудио #1
    Идентификатор : 257 (0x101)
    Идентификатор меню : 1 (0x1)
    Формат : MPEG Audio
    Версия формата : Version 1
    Профиль формата : Layer 2
    Идентификатор кодека : 3
    Продолжительность : 1 ч. 28 м.
    Вид битрейта : Постоянный
    Битрейт : 192 Кбит/сек
    Каналы : 2 канала
    Частота : 48, 0 КГц
    Метод сжатия : С потерями
    Задержка видео : 82 мс.
    Размер потока : 122 Мбайт (2%)
    Язык : Russian
    Аудио #2
    Идентификатор : 258 (0x102)
    Идентификатор меню : 1 (0x1)
    Формат : MPEG Audio
    Версия формата : Version 1
    Профиль формата : Layer 2
    Идентификатор кодека : 3
    Продолжительность : 1 ч. 28 м.
    Вид битрейта : Постоянный
    Битрейт : 192 Кбит/сек
    Каналы : 2 канала
    Частота : 48, 0 КГц
    Метод сжатия : С потерями
    Задержка видео : 86 мс.
    Размер потока : 122 Мбайт (2%)
    Язык : English
    Меню
    Идентификатор : 4096 (0x1000)
    Идентификатор меню : 1 (0x1)
    Продолжительность : 1 ч. 28 м.
    Список : 256 (0x100) (AVC)/257 (0x101) (MPEG Audio, Russian)/258 (0x102) (MPEG Audio, English)
    Язык : /Russian/English
    Название сервиса : Service01
    Поставщик сервиса : FFmpeg
    Тип сервиса : digital television

    Скриншоты для ознакомления



    Все одноименные релизы в Клубе
    Время раздачи: 24/7 (около 1 месяца)

    Хоккей. НХЛ 2017-2018. Сан-Хосе Шаркс – Филадельфия Флайерз (04.10.2017) IPTV [H.264/1080i]
    загрузка...
    Рейтинг →
     (голосов: 1, оценка 4/5, голосовать можно 1 раз )

    Другие торренты по теме:

  • Хоккей. НХЛ Сезон 2015-16. Сан-Хосе Шаркс - Питсбург Пингвинз (21.11.2015) WEB-DL [H.264 / 720p-LQ] скачать через торрент бесплатно
  • Хоккей. НХЛ Сезон 2015-16. Питсбург Пингвинз - Сан-Хосе Шаркс (01.12.2015) WEB-DL [H.264 / 720p-LQ] скачать через торрент бесплатно
  • Хоккей. НХЛ 2015-2016. Сан Хосе - Детройт. (08.01.2016) HDTV [H.264 / 1080i] скачать через торрент бесплатно
  • Хоккей. НХЛ 2015-2016. Калгари - Сан Хосе. (12.01.2016) HDTVRip [H.264 / 720p-LQ]
  • Хоккей. НХЛ 2015-2016. Виннипег - Сан Хосе. (13.01.2016) HDTVRip [H.264 / 720p-LQ]
  • Хоккей. НХЛ 2015-2016. Сан Хосе - Эдмонтон. (14.01.2016) HDTVRip [H.264 / 720p-LQ]
  • Хоккей. НХЛ 2015-2016. Сан Хосе - Даллас. (16.01.2016) HDTVRip [H.264 / 720p-LQ]
  • Хоккей. НХЛ 2015-2016. Сан Хосе - Оттава. (18.01.2016) HDTVRip [H.264 / 720p-LQ]


    • Комментарии (0):

      Информация

      Информация

        Посетители, находящиеся в группе Гости, не могут оставлять комментарии в данной новости.

        ↓ Меню




        ↓ Опрос

        Вы добавили сайт в закладки?
        Да
        Нет


        Top 10 за месяц (Передачи)

        Nat Geo Wild: Дикая Иберия / Wild Iberia [сезон 1 серии 1-4 из 4] (2014) HDTVRip [H.264 / 720p] скачать через торрент бесплатно

        (скачиваний: 6)
        Бренды Советской Эпохи (серии 84 из) (2013-2016) SATRip

        (скачиваний: 5)
        Сергей Тармашев | Что посеешь (2016) [FB2]

        (скачиваний: 5)
        Ольга Гусейнова | Галактика. Принцесса и Генерал (2016) [FB2]

        (скачиваний: 4)
        Короли фанеры (2017.10.07) SATRip (выпуск 4)

        (скачиваний: 4)
        Вести недели (01.10.2017) SATRip

        (скачиваний: 3)
        Международный авиационно-космический салон МАКС-2017 в Жуковском (2017) HDTV [H.264 / 1080p-LQ]

        (скачиваний: 3)
        Алекс Новак, Юрий Трогиянов | Добро с кулаками. Принципы мышления четырехкратного чемпиона мира по кикбоксингу в реальной жизни (2017) [FB2]

        (скачиваний: 3)
        Журнал | Рецепты на бис. Спецвыпуск №1 (19) (2017) [PDF]

        (скачиваний: 3)
        Винсент. Нерассказанная история нашего дяди. Биография Винсента Ван Гога / Vincent - The Untold Story of our Uncle, a biography the life & times of Vincent van Gogh (2012) DVB [H.264] (Серии 1-7 из 7)

        (скачиваний: 3)