.
Авторизация | Регистрация
Хочешь лучшие торренты? Добавь свой email!
Добавить

Торрент скачать бесплатно

» » Хоккей. НХЛ 2017-2018. Питтсбург Пингвинз – Сент-Луис Блюз (04.10.2017) IPTV [H.264 / 1080i-LQ] торрент скачать бесплатно




    Хоккей. НХЛ 2017-2018. Питтсбург Пингвинз – Сент-Луис Блюз (04.10.2017) IPTV [H.264 / 1080i-LQ] торрент скачать бесплатно

    Опубликовал: Админ | Дата: 9-10-2017, 05:00 | Просмотров: 0

    Телекомпания: Setanta Sports Eurasia HD
    Жанр: Спорт
    Комментатор: Артём Баленок

    Описание
    05 октября 2017 года, четверг. 03: 00 МСК
    НХЛ 2017-2018. Регулярный чемпионат
    Питтсбург Пингвинз – Сент-Луис Блюз
    Стадион: Пи-Пи-Джи Пэйнтс-Арена (Питтсбург, США), 18652 зрителя (94 % при вместимости 19758)
    Главные судьи: Тревор Хансон (Канада), Марк Жоанетт (Канада)
    Судьи на линии: Andrew Smith, Скотт Дрисколл
    Релиз от: kos___77
    Продолжительность: 01: 57: 50
    Качество видео: IPTV
    Язык озвучки: Русский, Английский
    Субтитры: отсутствуют
    Видео: AVC/H.264, 1920x1080 (16: 9), ~6860 Kbps
    Аудио #1: MP2, 2 ch, 48 kHz, 192 Kbps | Русский
    Аудио #2: MP2, 2 ch, 48 kHz, 192 Kbps | Английский
    Код: выделить все

    Общее
    Идентификатор : 1 (0x1)
    Полное имя : F:\SPORT\Хоккей\NHL 2017-2018\(04.10.2017)_NHL 2017-2018.RS. St. Louis Blues - Pittsburgh Penguins.ts
    Формат : MPEG-TS
    Размер файла : 6, 56 Гбайт
    Продолжительность : 1 ч. 57 м.
    Режим общего битрейта : Переменный
    Общий поток : 7967 Кбит/сек
    Видео
    Идентификатор : 256 (0x100)
    Идентификатор меню : 1 (0x1)
    Формат : AVC
    Формат/Информация : Advanced Video Codec
    Профиль формата : High@L4
    Параметр CABAC формата : Да
    Параметр RefFrames формата : 3 кадра
    Идентификатор кодека : 27
    Продолжительность : 1 ч. 57 м.
    Вид битрейта : Постоянный
    Битрейт : 6860 Кбит/сек
    Ширина : 1920 пикселей
    Высота : 1080 пикселей
    Соотношение сторон : 16:9
    Частота кадров : 25, 000 кадров/сек
    Цветовое пространство : YUV
    Субдискретизация насыщенности : 4:2:0
    Битовая глубина : 8 бит
    Тип развёртки : Чересстрочная
    Метод сохранения типа развёртки : Раздельные поля
    Порядок развёртки : Верхнее поле первое
    Бит/(Пиксели*Кадры) : 0.132
    Размер потока : 5, 91 Гбайт (90%)
    Цветовой диапазон : Limited
    Основные цвета : BT.709
    Характеристики трансфера : BT.709
    Коэффициенты матрицы : BT.709
    Аудио #1
    Идентификатор : 257 (0x101)
    Идентификатор меню : 1 (0x1)
    Формат : MPEG Audio
    Версия формата : Version 1
    Профиль формата : Layer 2
    Идентификатор кодека : 3
    Продолжительность : 1 ч. 57 м.
    Вид битрейта : Постоянный
    Битрейт : 192 Кбит/сек
    Каналы : 2 канала
    Частота : 48, 0 КГц
    Метод сжатия : С потерями
    Задержка видео : 568 мс.
    Размер потока : 162 Мбайт (2%)
    Аудио #2
    Идентификатор : 258 (0x102)
    Идентификатор меню : 1 (0x1)
    Формат : MPEG Audio
    Версия формата : Version 1
    Профиль формата : Layer 2
    Идентификатор кодека : 3
    Продолжительность : 1 ч. 57 м.
    Вид битрейта : Постоянный
    Битрейт : 192 Кбит/сек
    Каналы : 2 канала
    Частота : 48, 0 КГц
    Метод сжатия : С потерями
    Задержка видео : 568 мс.
    Размер потока : 162 Мбайт (2%)
    Меню
    Идентификатор : 4096 (0x1000)
    Идентификатор меню : 1 (0x1)
    Продолжительность : 1 ч. 57 м.
    Список : 256 (0x100) (AVC)/257 (0x101) (MPEG Audio)/258 (0x102) (MPEG Audio)
    Название сервиса : Service01
    Поставщик сервиса : FFmpeg
    Тип сервиса : digital television

    Скриншоты для ознакомления



    Все одноименные релизы в Клубе
    Время раздачи: 24/7 (около 1 месяца)

    Хоккей. НХЛ 2017-2018. Питтсбург Пингвинз – Сент-Луис Блюз (04.10.2017) IPTV [H.264/1080i-LQ]
    загрузка...
    Рейтинг →
     (голосов: 1, оценка 5/5, голосовать можно 1 раз )

    Другие торренты по теме:

  • Хоккей. НХЛ Сезон 2015-16. Монреаль Канадиенс - Питтсбург Пингвинз(13.10.2015) WEB-DL [H.264 / 720p-LQ] скачать через торрент бесплатно
  • Хоккей. НХЛ Сезон 2015-16. Монреаль Канадиенс - Питтсбург Пингвинз (28.10.2015) WEB-DL [H.264 / 720p-LQ] скачать через торрент бесплатно
  • Хоккей. НХЛ Сезон 2015-16. Питтсбург Пингвинз - Торонто Мейпл Лифс (31.10.2015) HDTVRip [H.264 / 720p-LQ] скачать через торрент бесплатно
  • Хоккей. НХЛ Сезон 2015-16. Питтсбург Пингвинз - Ванкувер Кэнакс (04.11.2015) HDTVRip [H.264 / 720p-LQ] скачать через торрент бесплатно
  • Хоккей. НХЛ Сезон 2015-16. Питтсбург Пингвинз - Эдмонтон Ойлерз (06.11.2015) HDTVRip [H.264 / 720p-LQ] скачать через торрент бесплатно
  • Хоккей. НХЛ 2015-2016. Монреаль - Питтсбург. (10.01.2016) HDTVRip [H.264 / 720p-LQ] скачать через торрент бесплатно
  • Хоккей. НХЛ 2015-2016. Каролина - Питтсбург. (13.01.2016) HDTVRip [H.264 / 720p-LQ]
  • Хоккей. НХЛ 2015-2016. Тампа Бэй - Питтсбург. (15.01.2016) HDTVRip [H.264 / 720p-LQ]


    • Комментарии (0):

      Информация

      Информация

        Посетители, находящиеся в группе Гости, не могут оставлять комментарии в данной новости.

        ↓ Меню




        ↓ Опрос

        Вы добавили сайт в закладки?
        Да
        Нет


        Top 10 за месяц (Передачи)