.
Авторизация | Регистрация
Хочешь лучшие торренты? Добавь свой email!
Добавить

Торрент скачать бесплатно

» » Хоккей. НХЛ 2017-2018. Оттава Сенаторз – Вашингтон Кэпиталз (05.10.2017) HDTVRip [H.264 / 720p-LQ] [hand made 50fps] торрент скачать бесплатно




    Хоккей. НХЛ 2017-2018. Оттава Сенаторз – Вашингтон Кэпиталз (05.10.2017) HDTVRip [H.264 / 720p-LQ] [hand made 50fps] торрент скачать бесплатно

    Опубликовал: Админ | Дата: 9-10-2017, 05:00 | Просмотров: 0

    Телекомпания: Eurosport Gold
    Жанр: Спорт
    Комментатор: Владимир Дехтярёв

    Описание
    06 октября 2017 года, пятница. 02: 30 МСК
    НХЛ 2017-2018. Регулярный чемпионат
    Оттава Сенаторз – Вашингтон Кэпиталз
    Стадион: Канадиен Тайр-центр (Оттава, Канада), 17009 зрителей (83 % при вместимости 20500)
    Главные судьи: Крис Ли (Канада), Фредерик Л\\'Экюйе (Канада)
    Судьи на линии: Стив Миллер, Дэвин Берг
    Релиз от: Багга17879
    Продолжительность: 02: 07: 54
    Качество видео: HDTVRip
    Язык озвучки: Русский
    Субтитры: отсутствуют
    Видео: AVC/H.264, 1280x720 (16: 9), ~3000 Kbps, 50 fps
    Аудио: AAC, 2 ch, 48 kHz, 128 Kbps
    Код: выделить все

    Общее
    Уникальный идентификатор : 237693144276421949681374083570880681265 (0xB2D208CF56F1E4759EAD018B0BCB1531)
    Полное имя : F:\SPORT\Хоккей\NHL 2017-2018\(05.10.2017)_NHL 2017-2018.RS. Washington Capitals - Ottawa Senators.mkv
    Формат : Matroska
    Версия формата : Version 4/Version 2
    Размер файла : 2, 80 Гбайт
    Продолжительность : 2 ч. 7 м.
    Общий поток : 3135 Кбит/сек
    Дата кодирования : UTC 2017-10-06 11:14:41
    Программа кодирования : mkvmerge v8.3.0 (\\'Over the Horizon\\') 64bit
    Библиотека кодирования : libebml v1.3.1 + libmatroska v1.4.2
    Видео
    Идентификатор : 1
    Формат : AVC
    Формат/Информация : Advanced Video Codec
    Профиль формата :High@L3.2
    Параметр CABAC формата : Да
    Параметр RefFrames формата : 4 кадра
    Идентификатор кодека : V_MPEG4/ISO/AVC
    Продолжительность : 2 ч. 7 м.
    Битрейт : 3000 Кбит/сек
    Ширина : 1280 пикселей
    Высота : 720 пикселей
    Соотношение сторон : 16:9
    Режим частоты кадров : Постоянный
    Частота кадров : 50, 000 кадров/сек
    Цветовое пространство : YUV
    Субдискретизация насыщенности : 4:2:0
    Битовая глубина : 8 бит
    Тип развёртки : Прогрессивная
    Бит/(Пиксели*Кадры) : 0.065
    Размер потока : 2, 68 Гбайт (96%)
    Библиотека кодирования : x264 core 146 r2538 121396c
    Настройки программы : cabac=1/ref=3/deblock=1:0:0/analyse=0x3:0x113/me=hex/subme=7/psy=1/psy_rd=1.00:0.00/mixed_ref=1/me_range=16/chroma_me=1/trellis=1/8x8dct=1/cqm=0/deadzone=21, 11/fast_pskip=1/chroma_qp_offset=-2/threads=12/lookahead_threads=2/sliced_threads=0/nr=0/decimate=1/interlaced=0/bluray_compat=0/constrained_intra=0/bframes=3/b_pyramid=2/b_adapt=1/b_bias=0/direct=1/weightb=1/open_gop=0/weightp=2/keyint=250/keyint_min=25/scenecut=40/intra_refresh=0/rc_lookahead=40/rc=abr/mbtree=1/bitrate=3000/ratetol=1.0/qcomp=0.60/qpmin=0/qpmax=69/qpstep=4/ip_ratio=1.40/aq=1:1.00
    Default : Да
    Forced : Нет
    Аудио
    Идентификатор : 2
    Формат : AAC
    Формат/Информация : Advanced Audio Codec
    Профиль формата : LC
    Идентификатор кодека : A_AAC
    Продолжительность : 2 ч. 7 м.
    Битрейт : 128 Кбит/сек
    Каналы : 2 канала
    Расположение каналов : Front: L R
    Частота : 48, 0 КГц
    Частота кадров : 46, 875 кадров/сек (1024 SPF)
    Метод сжатия : С потерями
    Задержка видео : 9 мс.
    Размер потока : 117 Мбайт (4%)
    Default : Да
    Forced : Нет

    Скриншоты для ознакомления



    Все одноименные релизы в Клубе
    Время раздачи: 24/7 (около 1 месяца)

    Хоккей. НХЛ 2017-2018. Оттава Сенаторз – Вашингтон Кэпиталз (05.10.2017) HDTVRip [H.264/720p-LQ] [hand made 50fps]
    загрузка...
    Рейтинг →
     (голосов: 1, оценка 4/5, голосовать можно 1 раз )

    Другие торренты по теме:

  • Хоккей. НХЛ 2015-2016. Оттава - Флорида. (08.01.2016) HDTV [H.264 / 1080i] скачать через торрент бесплатно
  • Хоккей. НХЛ 2015-2016. Вашингтон - Оттава. (11.01.2016) HDTVRip [H.264 / 720p-LQ] скачать через торрент бесплатно
  • Хоккей. НХЛ 2015-2016. Анахайм - Оттава. (13.01.2016) HDTVRip [H.264 / 720p-LQ]
  • Хоккей. НХЛ 2015-2016. Лос Анжелес - Оттава. (16.01.2016) HDTVRip [H.264 / 720p-LQ]
  • Хоккей. НХЛ 2015-2016. Сан Хосе - Оттава. (18.01.2016) HDTVRip [H.264 / 720p-LQ]
  • Хоккей. НХЛ 2015-2016. Нью Джерси - Оттава. (21.01.2016) HDTVRip [H.264 / 720p-LQ]
  • Хоккей. НХЛ 2015-2016. Оттава - Айлендерс. (22.01.2016) HDTVRip [H.264 / 720p-LQ]
  • Хоккей. НХЛ 2015-2016. Оттава - Рейнджерс. (24.01.2016) HDTVRip [H.264 / 720p-LQ]


    • Комментарии (0):

      Информация

      Информация

        Посетители, находящиеся в группе Гости, не могут оставлять комментарии в данной новости.

        ↓ Меню




        ↓ Опрос

        Вы добавили сайт в закладки?
        Да
        Нет


        Top 10 за месяц (Передачи)

        Nat Geo Wild: Дикая Иберия / Wild Iberia [сезон 1 серии 1-4 из 4] (2014) HDTVRip [H.264 / 720p] скачать через торрент бесплатно

        (скачиваний: 6)
        Бренды Советской Эпохи (серии 84 из) (2013-2016) SATRip

        (скачиваний: 5)
        Сергей Тармашев | Что посеешь (2016) [FB2]

        (скачиваний: 5)
        Ольга Гусейнова | Галактика. Принцесса и Генерал (2016) [FB2]

        (скачиваний: 4)
        Короли фанеры (2017.10.07) SATRip (выпуск 4)

        (скачиваний: 4)
        Вести недели (01.10.2017) SATRip

        (скачиваний: 3)
        Международный авиационно-космический салон МАКС-2017 в Жуковском (2017) HDTV [H.264 / 1080p-LQ]

        (скачиваний: 3)
        Алекс Новак, Юрий Трогиянов | Добро с кулаками. Принципы мышления четырехкратного чемпиона мира по кикбоксингу в реальной жизни (2017) [FB2]

        (скачиваний: 3)
        Журнал | Рецепты на бис. Спецвыпуск №1 (19) (2017) [PDF]

        (скачиваний: 3)
        Винсент. Нерассказанная история нашего дяди. Биография Винсента Ван Гога / Vincent - The Untold Story of our Uncle, a biography the life & times of Vincent van Gogh (2012) DVB [H.264] (Серии 1-7 из 7)

        (скачиваний: 3)