.
Авторизация | Регистрация
Хочешь лучшие торренты? Добавь свой email!
Добавить

Торрент скачать бесплатно

» » Формула 1. Гран-при Японии 2017. 16-й Этап. Гонка (08.10.2017) HDTV [H.264 / 1080i] торрент скачать бесплатно




    Формула 1. Гран-при Японии 2017. 16-й Этап. Гонка (08.10.2017) HDTV [H.264 / 1080i] торрент скачать бесплатно

    Опубликовал: Админ | Дата: 9-10-2017, 05:00 | Просмотров: 0

    Телекомпания: Россия, Матч HD
    Жанр: Спорт
    Комментаторы: Алексей Попов, Наталья Фабричнова

    Описание

    Автодром Формулы-1, расположен в городе Судзука, префектура Миэ, Япония. Был разработан Джоном Хугенхольцем (как тестовый трек для компании Honda) и открыт в 1961 году. С 1987 года автодром принимает у себя гран-при Формулы 1. Исключением стал 2007 и 2008 год, когда гонки проходили на модернизированной (известным архитектором Германом Тильке) трассе Фудзи, которая принадлежит компании Toyota.
    Сузука является достаточно уникальной трассой, так как её форма напоминает восьмёрку, а в месте пересечения используется мост.
    Сузука пользуется большой популярностью зрителей, на треке много мест для обгона, а сама конфигурация обеспечивает прекрасный обзор для зрителей. Кроме того на этапе иногда определяется победитель всего чемпионата, так как Гран При традиционно занимает место в конце календаря.

    Продолжительность: 01: 53: 08
    Качество видео: HDTV
    Язык озвучки: Русский, Интершум
    Субтитры: Русские (Вшитые, отключаемые)
    Видео: AVC/H.264, 1920x1080, ~10300 Kbps
    Аудио #1: MP2, 2 ch, 192 Kbps | Русский
    Аудио #2: MP2, 2 ch, 192 Kbps | Интершум

    General
    ID : 1 (0x1)
    Complete name : D: \ТЕЛЕПЕРЕДАЧИ\FORMULA 1 - ФОРМУЛА 1\F1.Round.16.Japanese.Grand.Prix.2017\F1.Round.16.Japanese.Grand.Prix.2017-HDTV 1080i\F1.Round.16.Japanese.Grand.Prix.2017.Race.HDTV.1080i.ts
    Format : MPEG-TS
    File size : 8.84 GiB
    Duration : 1 h 53 min
    Overall bit rate mode : Variable
    Overall bit rate : 11.2 Mb/s
    Video
    ID : 204 (0xCC)
    Menu ID : 2204 (0x89C)
    Format : AVC
    Format/Info : Advanced Video Codec
    Format profile : High@L4
    Format settings, CABAC : Yes
    Format settings, RefFrames : 4 frames
    Codec ID : 27
    Duration : 1 h 53 min
    Bit rate : 10.3 Mb/s
    Width : 1 920 pixels
    Height : 1 080 pixels
    Display aspect ratio : 16: 9
    Frame rate : 25.000 FPS
    Standard : Component
    Color space : YUV
    Chroma subsampling : 4: 2: 0
    Bit depth : 8 bits
    Scan type : Interlaced
    Scan type, store method : Separated fields
    Scan order : Top Field First
    Bits/(Pixel*Frame) : 0.198
    Stream size : 8.10 GiB (92%)
    Color range : Limited
    Color primaries : BT.709
    Transfer characteristics : BT.709
    Matrix coefficients : BT.709
    Audio #1
    ID : 304 (0x130)
    Menu ID : 2204 (0x89C)
    Format : MPEG Audio
    Format version : Version 1
    Format profile : Layer 2
    Codec ID : 3
    Duration : 1 h 53 min
    Bit rate mode : Constant
    Bit rate : 192 kb/s
    Channel(s) : 2 channels
    Sampling rate : 48.0 kHz
    Compression mode : Lossy
    Delay relative to video : -80 ms
    Stream size : 155 MiB (2%)
    Language : Russian
    Audio #2
    ID : 305 (0x131)
    Menu ID : 2204 (0x89C)
    Format : MPEG Audio
    Format version : Version 1
    Format profile : Layer 2
    Codec ID : 3
    Duration : 1 h 53 min
    Bit rate mode : Constant
    Bit rate : 192 kb/s
    Channel(s) : 2 channels
    Sampling rate : 48.0 kHz
    Compression mode : Lossy
    Delay relative to video : -80 ms
    Stream size : 155 MiB (2%)
    Text
    ID : 306 (0x132)-888
    Menu ID : 2204 (0x89C)
    Format : Teletext Subtitle
    Language : Russian
    Language, more info : For hearing impaired people

    Скриншоты для ознакомления



    Все одноименные релизы в Клубе
    Время раздачи: до 3-х скачавших, далее по возможности. (до появления первых 3-5 скачавших)

    Формула 1. Гран-при Японии 2017. 16-й Этап. Гонка (08.10.2017) HDTV [H.264/1080i]
    загрузка...
    Рейтинг →
     (голосов: 1, оценка 5/5, голосовать можно 1 раз )

    Другие торренты по теме:

  • Формула 1. Гран-При Сингапура. Гонка (2014) HDTVRip [H.264 / 720p] [hand made 50fps]
  • Формула 1. Гран-При Японии. Гонка (2014) HDTVRip [H.264 / 720p] [hand made 50fps] скачать через торрент бесплатно
  • Формула 1. Гран-При России. Квалификация (2014) HDTVRip [H.264 / 720p] [hand made 50fps] скачать через торрент бесплатно
  • Формула 1. Гран-При России. Гонка (2014) HDTVRip [H.264 / 720p] [hand made 50fps] скачать через торрент бесплатно
  • Формула 1. Гран-При России. Гонка (2014) HDTVRip [H.264] скачать через торрент бесплатно
  • Формула 1. Гран-При США. Квалификация (2014) HDTVRip [H.264]
  • Формула 1. Гран-При США. Гонка (2014) HDTVRip [H.264 / 720p] [hand made 50fps] скачать через торрент бесплатно
  • Формула 1. Гран-При Бразилии. Квалификация (2014) HDTVRip [H.264] скачать через торрент бесплатно


    • Комментарии (0):

      Информация

      Информация

        Посетители, находящиеся в группе Гости, не могут оставлять комментарии в данной новости.

        ↓ Меню




        ↓ Опрос

        Вы добавили сайт в закладки?
        Да
        Нет


        Top 10 за месяц (Передачи)