.
Авторизация | Регистрация
Хочешь лучшие торренты? Добавь свой email!
Добавить

Торрент скачать бесплатно

» » Чудо техники (2017.10.08) SATRip торрент скачать бесплатно




    Чудо техники (2017.10.08) SATRip торрент скачать бесплатно

    Опубликовал: Админ | Дата: 9-10-2017, 05:00 | Просмотров: 0

    Телекомпания: НТВ
    Жанр: Телепередача
    Ведущий: Сергей Малозёмов

    Описание

    Чудо техники — это доходчивый и интересный рассказ о новейших научных разработках, которые способны поменять или уже меняют нашу повседневную жизнь. Автор проекта — Сергей Малозёмов — хорошо знаком зрителям НТВ по репортажам программы Сегодня, касающимся новых технологий, гаджетов, медицины. Он в курсе последних научных разработок и одним из первых узнает о значимых изобретениях. Теперь обо всем, что происходит на передовой научно-технического прогресса, узнают и зрители НТВ. Новинки и открытия со всего мира создатели проекта подвергнут самому тщательному анализу: что-то протестируют на себе или специально приглашенных героях, узнают мнения экспертов, постараются проникнуть в саму суть вещей при помощи компьютерной графики и экспериментов в лаборатории. Когда можно будет попробовать мясо из пробирки и каково оно будет на вкус? Можно ли доверить уборку дома роботу и правда ли инфракрасный обогреватель лучше греет? Скоро ли нам будут доступны безболезненные уколы? Ответы на эти и многие другие вопросы – в каждом выпуске проекта Чудо техники.
    Релиз от: -=FOX=-
    Продолжительность: ~ 00: 39: 48
    Качество видео: SATRip
    Субтитры: Отсутствуют
    Видео: MPEG4, XviD, 720x448 (1.607), 25.000 fps, 1 800 Kbps (0.223 bit/pixel)
    Аудио: MP3, 48.0 KHz, 2 ch, 128 Kbps, CBR
    Код: выделить все
    Общее
    Полное имя : D:\[1]\Чудо техники\Чудо техники (2017.10.08).avi
    Формат : AVI
    Формат/Информация : Audio Video Interleave
    Размер файла : 552 Мбайт
    Продолжительность : 39 м.
    Общий поток : 1938 Кбит/сек
    Программа кодирования : VirtualDubMod 1.5.10.3 |www.virtualdub-fr.org|| (build 2550/release)
    Библиотека кодирования : VirtualDubMod build 2550/release
    Видео
    Идентификатор : 0
    Формат : MPEG-4 Visual
    Профиль формата : Advanced Simple@L5
    Параметр BVOP формата : 2
    Параметр QPel формата : Нет
    Параметр GMC формата : Без точки перехода
    Параметр матрицы формата : Default (MPEG)
    Идентификатор кодека : XVID
    Идентификатор кодека/Подсказка : XviD
    Продолжительность : 39 м.
    Битрейт : 1800 Кбит/сек
    Ширина : 720 пикселей
    Высота : 448 пикселей
    Соотношение сторон : 16:10
    Частота кадров : 25, 000 кадров/сек
    Цветовое пространство : YUV
    Субдискретизация насыщенности : 4:2:0
    Битовая глубина : 8 бит
    Тип развёртки : Прогрессивная
    Метод сжатия : С потерями
    Бит/(Пиксели*Кадры) : 0.223
    Размер потока : 512 Мбайт (93%)
    Библиотека кодирования : XviD 73
    Аудио
    Идентификатор : 1
    Формат : MPEG Audio
    Версия формата : Version 1
    Профиль формата : Layer 3
    Идентификатор кодека : 55
    Идентификатор кодека/Подсказка : MP3
    Продолжительность : 39 м.
    Вид битрейта : Постоянный
    Битрейт : 128 Кбит/сек
    Каналы : 2 канала
    Частота : 48, 0 КГц
    Метод сжатия : С потерями
    Размер потока : 36, 4 Мбайт (7%)
    Выравнивание : Соединение по промежуткам
    Продолжительность промежутка : 40 мс. (1, 00 видеокадр)
    Время предзагрузки промежутка : 504 мс.
    Библиотека кодирования : LAME3.99r
    Настройки программы : -m s -V 4 -q 2 -lowpass 17 -b 128
    - Роботы-пылесосы против беспроводных! Кто кого? Битва технологий. Узнаем, кто лучше уберет в квартире, не побоится ковров, порогов, брошенных носков и детских игрушек? Основательно ли почистит робот, пока вас не дома? И не разобьет ли любимую вазу? Быстро ли разряжаются беспроводные роботы-пылесосы? Истории пользователей - тех, кто протестировал десятки разных пылесосов.
    - Тайны явлений и вещей: седина - откуда она берется? Можно ли поседеть за один день? И что делать с этим подарком природы? Кто и зачем тратит деньги, чтобы специально стать седым? И есть ли средства, которые помогают скрыть седые волосы?
    - Чудо-товары: отпугиватель собак, дешевое устройство для структурирования воды, таблетки, заменяющие еду. Что из этого достойно нашей наклейки чудо, а что нет?
    - Кроссовые мотоциклы с электромотором. Чем они лучше бензиновых? Расскажем в истории Умельца недели Владимира Петрова.
    Все самое интересное — в программе Чудо техники.

    Скриншоты для ознакомления



    Все одноименные релизы в Клубе
    Время раздачи: 24/7. До первых 5 скачавших.
    .dlother {background: url(\\'http://assets.nnm-club.ws/forum/images/dlother.png\\');width: 200px;height: 50px;overflow: hidden;margin: 0;-webkit-border-radius: 5px;-moz-border-radius: 5px;border-radius: 5px} .dlother a, .dlother a: hover {color: rgba(255, 255, 255, 0.6);font-size: 18px;font-family: Arial;display: block;padding: 14px;text-decoration: none;text-align: left;font-weight: normal;margin: 0} .dlother a span {color: #fff}
    NNM-Club.name_CHudo tehniki (2017.10.08).avi.torrent
    Торрент: Зарегистрирован
    Подписаться на изменения
    Скачать
    11 KB

    Примагнититься
    Зарегистрирован: 08 Окт 2017 09: 03: 38
    Размер: 552 MB (Вам доступно: 50, 37 TB)
    Рейтинг: 4 (Голосов: 21 )Супер Хорошо Средне Так себе Убил время
    Поблагодарили: 92 Спасибо (список )
    Проверка: Оформление проверено модератором 08 Окт 2017 09: 04: 50
    Как cкачать · Как раздать · Правильно оформить · Поднять ратио!
    Вернуться к началу
    Посмотреть профильОтправить личное сообщениеНайти релизы
    Soldszar
    Стаж: 7 лет 1 мес.
    Сообщений: 95
    Ratio: 13, 74
    Поблагодарили: 13
    1.64%
    ussr.gif
    Новое сообщение08 Окт 2017 11: 18: 37 Заголовок сообщения:
    Ответить с цитатой

    На молодого Тома Харди похож)

    Чудо техники (2017.10.08) SATRip
    загрузка...
    Рейтинг →
     (голосов: 1, оценка 5/5, голосовать можно 1 раз )

    Другие торренты по теме:

  • Чудо техники (2014.09.28) SATRip
  • Чудо техники (2014.10.05) SATRip скачать через торрент бесплатно
  • Чудо техники (2014.10.12) SATRip
  • Чудо техники (2014.10.19) SATRip скачать через торрент бесплатно
  • Чудо техники (2014.10.26) SATRip скачать через торрент бесплатно
  • Чудо техники (2014.10.26) SATRip скачать через торрент бесплатно
  • Чудо техники (2014.11.02) SATRip скачать через торрент бесплатно
  • Чудо техники (2014.11.09) SATRip скачать через торрент бесплатно


    • Комментарии (0):

      Информация

      Информация

        Посетители, находящиеся в группе Гости, не могут оставлять комментарии в данной новости.

        ↓ Меню




        ↓ Опрос

        Вы добавили сайт в закладки?
        Да
        Нет


        Top 10 за месяц (Передачи)