.
Авторизация | Регистрация
Хочешь лучшие торренты? Добавь свой email!
Добавить

Торрент скачать бесплатно

» » Орел и решка. Перезагрузка (2017.10.03) WEB-DL [H.264 / 1080p-LQ] (сезон 14: Хошимин. Вьетнам) торрент скачать бесплатно




    Орел и решка. Перезагрузка (2017.10.03) WEB-DL [H.264 / 1080p-LQ] (сезон 14: Хошимин. Вьетнам) торрент скачать бесплатно

    Опубликовал: Админ | Дата: 9-10-2017, 05:00 | Просмотров: 0

    Телекомпания: ИНТЕР
    Жанр: Реалити-шоу, путешествия, география, познавательный
    Ведущий: Настя Ивлеева и Антон Птушкин

    Описание

    Шесть лет назад команда проекта Орел и решка впервые отправилась в большое путешествие по самым интересным городам нашей планеты. За прошедшее время в них столько всего изменилось, что создатели шоу решили приехать сюда снова. Орел и решка объявляет перезагрузку! Телезрителей ждет встреча с невиданными чудесами, новыми незабываемыми впечатлениями и самое главное - с новыми ведущими!

    Возраст: 12+ (зрителям, достигшим 12 лет)
    Релиз от: svlesin
    Продолжительность: ~ 00: 48: 07
    Качество видео: WEB-DL
    Субтитры: Отсутствуют
    Видео: AVC, 1920x1080 (16: 9), 25.000 fps, 3 571 Kbps (0.069 bit/pixel)
    Аудио: AC-3, 44.1 KHz, 2 ch, 192 Kbps, CBR
    Код: выделить все
    Общее
    Уникальный идентификатор : 182962192965869350436208343434726178853 (0x89A53C92A0E10F819755969D84338025)
    Полное имя : D:\[1]\Орел и решка\Орел и решка. Перезагрузка (2017.10.03)_1080 - Хошимин_Вьетнам.mkv
    Формат : Matroska
    Версия формата : Version 4/Version 2
    Размер файла : 1, 29 Гбайт
    Продолжительность : 48 м.
    Общий поток : 3839 Кбит/сек
    Название фильма : Орел и решка. Перезагрузка (2017.10.03)_1080 - Хошимин_Вьетнам_nnm-club.name
    Дата кодирования : UTC 2017-10-08 09:09:47
    Программа кодирования : mkvmerge v15.0.0 (\\'Duel with the Devil\\') 64-bit
    Библиотека кодирования : libebml v1.3.5 + libmatroska v1.4.5
    DURATION : 00:48:07.018000000
    NUMBER_OF_FRAMES : 82889
    NUMBER_OF_BYTES : 69288436
    _STATISTICS_WRITING_APP : mkvmerge v15.0.0 (\\'Duel with the Devil\\') 64-bit
    _STATISTICS_WRITING_DATE_UTC : 2017-10-08 09:09:47
    _STATISTICS_TAGS : BPS DURATION NUMBER_OF_FRAMES NUMBER_OF_BYTES
    Видео
    Идентификатор : 1
    Формат : AVC
    Формат/Информация : Advanced Video Codec
    Профиль формата : High@L4
    Параметр CABAC формата : Да
    Параметр ReFrames формата : 2 кадра
    Идентификатор кодека : V_MPEG4/ISO/AVC
    Продолжительность : 48 м.
    Битрейт : 3571 Кбит/сек
    Ширина : 1920 пикселей
    Высота : 1080 пикселей
    Соотношение сторон : 16:9
    Режим частоты кадров : Постоянный
    Частота кадров : 25, 000 кадров/сек
    Цветовое пространство : YUV
    Субдискретизация насыщенности : 4:2:0
    Битовая глубина : 8 бит
    Тип развёртки : Прогрессивная
    Бит/(Пиксели*Кадры) : 0.069
    Размер потока : 1, 20 Гбайт (93%)
    Default : Да
    Forced : Нет
    Цветовой диапазон : Limited
    Основные цвета : BT.709
    Характеристики трансфера : BT.709
    Коэффициенты матрицы : BT.709
    Аудио
    Идентификатор : 2
    Формат : AC-3
    Формат/Информация : Audio Coding 3
    Расширение режима : CM (complete main)
    Параметр Endianness формата : Big
    Идентификатор кодека : A_AC3
    Продолжительность : 48 м.
    Вид битрейта : Постоянный
    Битрейт : 192 Кбит/сек
    Каналы : 2 канала
    Расположение каналов : Front: L R
    Частота : 44, 1 КГц
    Битовая глубина : 16 бит
    Метод сжатия : С потерями
    Размер потока : 66, 1 Мбайт (5%)
    Default : Да
    Forced : Нет
    Во вьетнамском Хошимине Антон оказался с золотой картой, а Настя со ста долларами. Как и шесть лет назад, богача сразу же увез тот самый розовый лимузин, чтобы он потратил несметные деньги на рестораны, концептуальный отель, тур по реке Меконг и театр кукол на воде. А девушка осмотрела центральную площадь, увидела самый необычный торговый комплекс в жилом доме, уникальный водопад Понгур и целые рынки с дешевой едой. Чем еще запомнится новое путешествие ведущих в Хошимин, узнаем из программы Орел и решка. Перезагрузка.

    Скриншоты для ознакомления



    Все одноименные релизы в Клубе
    Время раздачи: 24/7. До первых 5 скачавших.

    Орел и решка. Перезагрузка (2017.10.03) WEB-DL [H.264/1080p-LQ] (сезон 14: Хошимин. Вьетнам)
    загрузка...
    Рейтинг →
     (голосов: 1, оценка 5/5, голосовать можно 1 раз )

    Другие торренты по теме:

  • Орел и решка. Перезагрузка (2017.10.17) WEB-DL [H.264 / 720p-LQ] (сезон 14: Дублин. Ирландия)
  • Орел и решка. Перезагрузка (2017.10.17) WEB-DLRip (сезон 14: Дублин. Ирландия)
  • Орел и решка. Кругосветка (2016.11.14) WEB-DL [H.264 / 1080p-LQ] (сезон 12, выпуск 41: Нант, Франция)
  • Орел и решка. Кругосветка (2016.11.07) WEB-DL [H.264 / 1080p-LQ] (сезон 12, выпуск 40: Кордова, Испания)
  • Орел и решка. Кругосветка (2016.10.31) WEB-DL [H.264 / 1080p-LQ] (сезон 12, выпуск 39: Фес. Марокко)
  • Орел и решка. Кругосветка (2016.10.24) WEB-DL [H.264 / 1080p-LQ] (сезон 12, выпуск 38: Порту. Португалия)
  • Орел и решка. Кругосветка (2016.10.17) WEB-DL [H.264 / 1080p-LQ] (сезон 12, выпуск 37: Монтевидео. Уругвай)
  • Орел и решка. Кругосветка (2016.10.10) WEB-DL [H.264 / 1080p-LQ] (сезон 12, выпуск 36: Асунсьон. Парагвай)


    • Комментарии (0):

      Информация

      Информация

        Посетители, находящиеся в группе Гости, не могут оставлять комментарии в данной новости.

        ↓ Меню




        ↓ Опрос

        Вы добавили сайт в закладки?
        Да
        Нет


        Top 10 за месяц (Передачи)

        Nat Geo Wild: Дикая Иберия / Wild Iberia [сезон 1 серии 1-4 из 4] (2014) HDTVRip [H.264 / 720p] скачать через торрент бесплатно

        (скачиваний: 6)
        Бренды Советской Эпохи (серии 84 из) (2013-2016) SATRip

        (скачиваний: 5)
        Сергей Тармашев | Что посеешь (2016) [FB2]

        (скачиваний: 5)
        Ольга Гусейнова | Галактика. Принцесса и Генерал (2016) [FB2]

        (скачиваний: 4)
        Короли фанеры (2017.10.07) SATRip (выпуск 4)

        (скачиваний: 4)
        Вести недели (01.10.2017) SATRip

        (скачиваний: 3)
        Международный авиационно-космический салон МАКС-2017 в Жуковском (2017) HDTV [H.264 / 1080p-LQ]

        (скачиваний: 3)
        Алекс Новак, Юрий Трогиянов | Добро с кулаками. Принципы мышления четырехкратного чемпиона мира по кикбоксингу в реальной жизни (2017) [FB2]

        (скачиваний: 3)
        Журнал | Рецепты на бис. Спецвыпуск №1 (19) (2017) [PDF]

        (скачиваний: 3)
        Винсент. Нерассказанная история нашего дяди. Биография Винсента Ван Гога / Vincent - The Untold Story of our Uncle, a biography the life & times of Vincent van Gogh (2012) DVB [H.264] (Серии 1-7 из 7)

        (скачиваний: 3)