.
Авторизация | Регистрация
Хочешь лучшие торренты? Добавь свой email!
Добавить

Торрент скачать бесплатно

» » Орел и решка. Рай и ад-2 (2017.10.08) WEB-DLRip (сезон 15: Керала, Индия) торрент скачать бесплатно




    Орел и решка. Рай и ад-2 (2017.10.08) WEB-DLRip (сезон 15: Керала, Индия) торрент скачать бесплатно

    Опубликовал: Админ | Дата: 9-10-2017, 05:00 | Просмотров: 0

    Телекомпания: ИНТЕР
    Жанр: Реалити-шоу, путешествия, география, познавательный
    Ведущий: Регина Тодоренко и Натали Неведрова

    Описание

    Команда проекта продолжит свои райско-адские путешествия по миру, но во второй части Рая и ада зрителей ждут изменения.
    Во-первых, немного поменяется концепция: теперь прекрасное и ужасное будут искать в каждом исследуемом городе. Во-вторых, в 15-м сезон любимого сериалае вместо ушедшей в отпуск Леси Никитюк путешествовать с Региной Тодоренко будет новый ведущий. Его имя поклонники проекта узнают совсем скоро!
    Еще один сюрприз - первые выпуски 15-го сезон любимого сериалаа посвящены особенностям безвизового режима для украинцев. Куда можно и нужно поехать, где лучше наслаждаться отдыхом, чего бояться и опасаться в путешествиях - все это в новом сезон любимого сериалае проекта Орел и решка. Рай и ад 2.

    Возраст: 12+ (зрителям, достигшим 12 лет)
    Релиз от: svlesin
    Продолжительность: ~ 00: 49: 13
    Качество видео: WEB-DLRip
    Субтитры: Отсутствуют
    Видео: MPEG4, XviD, 720x400 (16: 9), 25.000 fps, 1 799 Kbps (0.250 bit/pixel)
    Аудио: AC-3, 44.1 KHz, 2 ch, 192 Kbps, CBR
    Код: выделить все
    Общее
    Полное имя : D:\[1]\Орел и решка\Орел и решка. Рай и ад - 2 (2017.10.08) - Керала_Индия.avi
    Формат : AVI
    Формат/Информация : Audio Video Interleave
    Размер файла : 703 Мбайт
    Продолжительность : 49 м.
    Общий поток : 1997 Кбит/сек
    Название фильма : Orel I reshka. Rai I ad-2 (2017.10.08) - Kerala (India)_nnm-club.name
    Программа кодирования : VirtualDubModRus 1.5.10.2 (build 2542/release)
    Библиотека кодирования : VirtualDubMod build 2542/release
    Видео
    Идентификатор : 0
    Формат : MPEG-4 Visual
    Профиль формата : Advanced Simple@L5
    Параметр BVOP формата : 1
    Параметр QPel формата : Нет
    Параметр GMC формата : Без точки перехода
    Параметр матрицы формата : Default (H.263)
    Идентификатор кодека : XVID
    Идентификатор кодека/Подсказка : XviD
    Продолжительность : 49 м.
    Битрейт : 1799 Кбит/сек
    Ширина : 720 пикселей
    Высота : 400 пикселей
    Соотношение сторон : 16:9
    Частота кадров : 25, 000 кадров/сек
    Цветовое пространство : YUV
    Субдискретизация насыщенности : 4:2:0
    Битовая глубина : 8 бит
    Тип развёртки : Прогрессивная
    Метод сжатия : С потерями
    Бит/(Пиксели*Кадры) : 0.250
    Размер потока : 633 Мбайт (90%)
    Библиотека кодирования : XviD 67
    Аудио
    Идентификатор : 1
    Формат : AC-3
    Формат/Информация : Audio Coding 3
    Расширение режима : CM (complete main)
    Параметр Endianness формата : Big
    Идентификатор кодека : 2000
    Продолжительность : 49 м.
    Продолжительность оригинала : 49 м.
    Вид битрейта : Постоянный
    Битрейт : 192 Кбит/сек
    Каналы : 2 канала
    Расположение каналов : Front: L R
    Частота : 44, 1 КГц
    Битовая глубина : 16 бит
    Метод сжатия : С потерями
    Размер потока : 67, 6 Мбайт (10%)
    Выравнивание : Разделение по промежуткам
    Продолжительность промежутка : 160 мс. (4, 00 видеокадра)
    Время предзагрузки промежутка : 640 мс.
    Этот уик-энд путешественницы Регина Тодоренко и Натали Неведрова проведут в нетуристическом индийском штате Керала. Это Индия, которой мы давно не видели, - колоритная, яркая и счастливая... Регина поселится в заповеднике бок о бок с дикими тиграми, увидит древний мистический ритуал Тэйям и благодаря лодочнику выучит индийские песни. Натали предстоит посетить самые масштабные события праздника Онома, отыскать тигров в индийских мужчинах и заново научиться... кушать!

    Скриншоты для ознакомления



    Все одноименные релизы в Клубе
    Время раздачи: 24/7. До первых 5 скачавших.

    Орел и решка. Рай и ад-2 (2017.10.08) WEB-DLRip (сезон 15: Керала, Индия)
    загрузка...
    Рейтинг →
     (голосов: 1, оценка 5/5, голосовать можно 1 раз )

    Другие торренты по теме:

  • Орел и решка. Сезон №1. Шопинг. Стокгольм (2014.09.23) SATRip
  • Орел и решка. Сезон №9. Неизведанная Европа. Роттердам (2014.09.28) SATRip
  • Орел и решка. Сезон №1. Шопинг. Амман (2014.09.30) SATRip скачать через торрент бесплатно
  • Орел и решка. Сезон №9. Неизведанная Европа. Страна Басков (Испания) (2014.10.05) SATRip скачать через торрент бесплатно
  • Орел и решка. Сезон №9. Неизведанная Европа. Сараево (2014.10.06) SATRip скачать через торрент бесплатно
  • Орел и решка (1-8 сезон: 1-134 выпуски, Неизданное 1-3 выпуск) (2011 - 2014) SATRip, HDTVRip скачать через торрент бесплатно
  • Орел и решка. Сезон №1. Шопинг. Каир (2014.10.07) SATRip скачать через торрент бесплатно
  • Орел и решка. Сезон №9. Неизведанная Европа. Сарагоса (2014.10.19) WEBRip


    • Комментарии (0):

      Информация

      Информация

        Посетители, находящиеся в группе Гости, не могут оставлять комментарии в данной новости.

        ↓ Меню




        ↓ Опрос

        Вы добавили сайт в закладки?
        Да
        Нет


        Top 10 за месяц (Передачи)