.
Авторизация | Регистрация
Хочешь лучшие торренты? Добавь свой email!
Добавить

Торрент скачать бесплатно

» » Орел и решка. Рай и ад-2 (2017.10.08) WEB-DL [H.264 / 720p-LQ] (сезон 15: Керала, Индия) торрент скачать бесплатно




    Орел и решка. Рай и ад-2 (2017.10.08) WEB-DL [H.264 / 720p-LQ] (сезон 15: Керала, Индия) торрент скачать бесплатно

    Опубликовал: Админ | Дата: 9-10-2017, 05:00 | Просмотров: 0

    Телекомпания: ИНТЕР
    Жанр: Реалити-шоу, путешествия, география, познавательный
    Ведущий: Регина Тодоренко и Натали Неведрова

    Описание

    Команда проекта продолжит свои райско-адские путешествия по миру, но во второй части Рая и ада зрителей ждут изменения.
    Во-первых, немного поменяется концепция: теперь прекрасное и ужасное будут искать в каждом исследуемом городе. Во-вторых, в 15-м сезон любимого сериалае вместо ушедшей в отпуск Леси Никитюк путешествовать с Региной Тодоренко будет новый ведущий. Его имя поклонники проекта узнают совсем скоро!
    Еще один сюрприз - первые выпуски 15-го сезон любимого сериалаа посвящены особенностям безвизового режима для украинцев. Куда можно и нужно поехать, где лучше наслаждаться отдыхом, чего бояться и опасаться в путешествиях - все это в новом сезон любимого сериалае проекта Орел и решка. Рай и ад 2.

    Возраст: 12+ (зрителям, достигшим 12 лет)
    Релиз от: svlesin
    Продолжительность: ~ 00: 49: 13
    Качество видео: WEB-DL
    Субтитры: Отсутствуют
    Видео: AVC, 1280x720 (16: 9), 25.000 fps, 1 895 Kbps (0.082 bit/pixel)
    Аудио: AC-3, 44.1 KHz, 2 ch, 192 Kbps, CBR
    Код: выделить все
    Общее
    Уникальный идентификатор : 198560038073210424696633980658484786790 (0x956145B6009EB23284AD0B8652543666)
    Полное имя : D:\[1]\Орел и решка\Орел и решка. Рай и ад - 2 (2017.10.08)_720 - Керала_Индия.mkv
    Формат : Matroska
    Версия формата : Version 4/Version 2
    Размер файла : 750 Мбайт
    Продолжительность : 49 м.
    Общий поток : 2129 Кбит/сек
    Название фильма : Орел и решка. Рай и ад - 2 (2017.10.08)_720 - Керала_Индия_nnm-club.name
    Дата кодирования : UTC 2017-10-08 09:38:35
    Программа кодирования : mkvmerge v15.0.0 (\\'Duel with the Devil\\') 64-bit
    Библиотека кодирования : libebml v1.3.5 + libmatroska v1.4.5
    DURATION : 00:49:13.369000000
    NUMBER_OF_FRAMES : 84794
    NUMBER_OF_BYTES : 70880862
    _STATISTICS_WRITING_APP : mkvmerge v15.0.0 (\\'Duel with the Devil\\') 64-bit
    _STATISTICS_WRITING_DATE_UTC : 2017-10-08 09:38:35
    _STATISTICS_TAGS : BPS DURATION NUMBER_OF_FRAMES NUMBER_OF_BYTES
    Видео
    Идентификатор : 1
    Формат : AVC
    Формат/Информация : Advanced Video Codec
    Профиль формата :Main@L3.1
    Параметр CABAC формата : Да
    Параметр ReFrames формата : 3 кадра
    Идентификатор кодека : V_MPEG4/ISO/AVC
    Продолжительность : 49 м.
    Битрейт : 1895 Кбит/сек
    Ширина : 1280 пикселей
    Высота : 720 пикселей
    Соотношение сторон : 16:9
    Режим частоты кадров : Постоянный
    Частота кадров : 25, 000 кадров/сек
    Цветовое пространство : YUV
    Субдискретизация насыщенности : 4:2:0
    Битовая глубина : 8 бит
    Тип развёртки : Прогрессивная
    Бит/(Пиксели*Кадры) : 0.082
    Размер потока : 667 Мбайт (89%)
    Default : Нет
    Forced : Нет
    Цветовой диапазон : Limited
    Основные цвета : BT.709
    Характеристики трансфера : BT.709
    Коэффициенты матрицы : BT.709
    DURATION : 00:49:13.360000000
    NUMBER_OF_FRAMES : 73834
    NUMBER_OF_BYTES : 714601174
    _STATISTICS_WRITING_APP : mkvmerge v15.0.0 (\\'Duel with the Devil\\') 64-bit
    _STATISTICS_WRITING_DATE_UTC : 2017-10-08 09:38:35
    _STATISTICS_TAGS : BPS DURATION NUMBER_OF_FRAMES NUMBER_OF_BYTES
    Аудио
    Идентификатор : 2
    Формат : AC-3
    Формат/Информация : Audio Coding 3
    Расширение режима : CM (complete main)
    Параметр Endianness формата : Big
    Идентификатор кодека : A_AC3
    Продолжительность : 49 м.
    Вид битрейта : Постоянный
    Битрейт : 192 Кбит/сек
    Каналы : 2 канала
    Расположение каналов : Front: L R
    Частота : 44, 1 КГц
    Битовая глубина : 16 бит
    Метод сжатия : С потерями
    Задержка видео : -200 мс.
    Размер потока : 67, 6 Мбайт (9%)
    Default : Да
    Forced : Нет
    Этот уик-энд путешественницы Регина Тодоренко и Натали Неведрова проведут в нетуристическом индийском штате Керала. Это Индия, которой мы давно не видели, - колоритная, яркая и счастливая... Регина поселится в заповеднике бок о бок с дикими тиграми, увидит древний мистический ритуал Тэйям и благодаря лодочнику выучит индийские песни. Натали предстоит посетить самые масштабные события праздника Онома, отыскать тигров в индийских мужчинах и заново научиться... кушать!

    Скриншоты для ознакомления



    Все одноименные релизы в Клубе
    Время раздачи: 24/7. До первых 5 скачавших.

    Орел и решка. Рай и ад-2 (2017.10.08) WEB-DL [H.264/720p-LQ] (сезон 15: Керала, Индия)
    загрузка...
    Рейтинг →
     (голосов: 1, оценка 3/5, голосовать можно 1 раз )

    Другие торренты по теме:

  • Орел и решка. Перезагрузка (2017.10.17) WEB-DL [H.264 / 720p-LQ] (сезон 14: Дублин. Ирландия)
  • Орел и решка. Перезагрузка (2017.10.17) WEB-DLRip (сезон 14: Дублин. Ирландия)
  • Орел и решка. Кругосветка (2016.11.14) WEB-DL [H.264 / 1080p-LQ] (сезон 12, выпуск 41: Нант, Франция)
  • Орел и решка. Кругосветка (2016.11.07) WEB-DL [H.264 / 1080p-LQ] (сезон 12, выпуск 40: Кордова, Испания)
  • Орел и решка. Кругосветка (2016.10.31) WEB-DL [H.264 / 1080p-LQ] (сезон 12, выпуск 39: Фес. Марокко)
  • Орел и решка. Кругосветка (2016.10.24) WEB-DL [H.264 / 1080p-LQ] (сезон 12, выпуск 38: Порту. Португалия)
  • Орел и решка. Кругосветка (2016.10.17) WEB-DL [H.264 / 1080p-LQ] (сезон 12, выпуск 37: Монтевидео. Уругвай)
  • Орел и решка. Кругосветка (2016.10.10) WEB-DL [H.264 / 1080p-LQ] (сезон 12, выпуск 36: Асунсьон. Парагвай)


    • Комментарии (0):

      Информация

      Информация

        Посетители, находящиеся в группе Гости, не могут оставлять комментарии в данной новости.

        ↓ Меню




        ↓ Опрос

        Вы добавили сайт в закладки?
        Да
        Нет


        Top 10 за месяц (Передачи)

        Nat Geo Wild: Дикая Иберия / Wild Iberia [сезон 1 серии 1-4 из 4] (2014) HDTVRip [H.264 / 720p] скачать через торрент бесплатно

        (скачиваний: 6)
        Бренды Советской Эпохи (серии 84 из) (2013-2016) SATRip

        (скачиваний: 5)
        Сергей Тармашев | Что посеешь (2016) [FB2]

        (скачиваний: 5)
        Ольга Гусейнова | Галактика. Принцесса и Генерал (2016) [FB2]

        (скачиваний: 4)
        Короли фанеры (2017.10.07) SATRip (выпуск 4)

        (скачиваний: 4)
        Вести недели (01.10.2017) SATRip

        (скачиваний: 3)
        Международный авиационно-космический салон МАКС-2017 в Жуковском (2017) HDTV [H.264 / 1080p-LQ]

        (скачиваний: 3)
        Алекс Новак, Юрий Трогиянов | Добро с кулаками. Принципы мышления четырехкратного чемпиона мира по кикбоксингу в реальной жизни (2017) [FB2]

        (скачиваний: 3)
        Журнал | Рецепты на бис. Спецвыпуск №1 (19) (2017) [PDF]

        (скачиваний: 3)
        Винсент. Нерассказанная история нашего дяди. Биография Винсента Ван Гога / Vincent - The Untold Story of our Uncle, a biography the life & times of Vincent van Gogh (2012) DVB [H.264] (Серии 1-7 из 7)

        (скачиваний: 3)