.
Авторизация | Регистрация
Хочешь лучшие торренты? Добавь свой email!
Добавить

Торрент скачать бесплатно

» » Орел и решка. Рай и ад-2 (2017.10.08) WEB-DL [H.264 / 1080p-LQ] (сезон 15: Керала, Индия) торрент скачать бесплатно




    Орел и решка. Рай и ад-2 (2017.10.08) WEB-DL [H.264 / 1080p-LQ] (сезон 15: Керала, Индия) торрент скачать бесплатно

    Опубликовал: Админ | Дата: 9-10-2017, 05:00 | Просмотров: 0

    Телекомпания: ИНТЕР
    Жанр: Реалити-шоу, путешествия, география, познавательный
    Ведущий: Регина Тодоренко и Натали Неведрова

    Описание

    Команда проекта продолжит свои райско-адские путешествия по миру, но во второй части Рая и ада зрителей ждут изменения.
    Во-первых, немного поменяется концепция: теперь прекрасное и ужасное будут искать в каждом исследуемом городе. Во-вторых, в 15-м сезон любимого сериалае вместо ушедшей в отпуск Леси Никитюк путешествовать с Региной Тодоренко будет новый ведущий. Его имя поклонники проекта узнают совсем скоро!
    Еще один сюрприз - первые выпуски 15-го сезон любимого сериалаа посвящены особенностям безвизового режима для украинцев. Куда можно и нужно поехать, где лучше наслаждаться отдыхом, чего бояться и опасаться в путешествиях - все это в новом сезон любимого сериалае проекта Орел и решка. Рай и ад 2.

    Возраст: 12+ (зрителям, достигшим 12 лет)
    Релиз от: svlesin
    Продолжительность: ~ 00: 49: 13
    Качество видео: WEB-DL
    Субтитры: Отсутствуют
    Видео: AVC, 1920x1080 (16: 9), 25.000 fps, 3 739 Kbps (0.072 bit/pixel)
    Аудио: AC-3, 44.1 KHz, 2 ch, 192 Kbps, CBR
    Код: выделить все
    Общее
    Уникальный идентификатор : 187446154896541391868897437644325196686 (0x8D04D0F6E8FED1009AA10B82B081138E)
    Полное имя : D:\[1]\Орел и решка\Орел и решка. Рай и ад - 2 (2017.10.08)_1080 - Керала_Индия.mkv
    Формат : Matroska
    Версия формата : Version 4/Version 2
    Размер файла : 1, 38 Гбайт
    Продолжительность : 49 м.
    Общий поток : 4010 Кбит/сек
    Название фильма : Орел и решка. Рай и ад - 2 (2017.10.08)_1080 - Керала_Индия_nnm-club.name
    Дата кодирования : UTC 2017-10-08 09:37:54
    Программа кодирования : mkvmerge v15.0.0 (\\'Duel with the Devil\\') 64-bit
    Библиотека кодирования : libebml v1.3.5 + libmatroska v1.4.5
    DURATION : 00:49:13.369000000
    NUMBER_OF_FRAMES : 84794
    NUMBER_OF_BYTES : 70880862
    _STATISTICS_WRITING_APP : mkvmerge v15.0.0 (\\'Duel with the Devil\\') 64-bit
    _STATISTICS_WRITING_DATE_UTC : 2017-10-08 09:37:54
    _STATISTICS_TAGS : BPS DURATION NUMBER_OF_FRAMES NUMBER_OF_BYTES
    Видео
    Идентификатор : 1
    Формат : AVC
    Формат/Информация : Advanced Video Codec
    Профиль формата : High@L4
    Параметр CABAC формата : Да
    Параметр ReFrames формата : 2 кадра
    Идентификатор кодека : V_MPEG4/ISO/AVC
    Продолжительность : 49 м.
    Битрейт : 3739 Кбит/сек
    Ширина : 1920 пикселей
    Высота : 1080 пикселей
    Соотношение сторон : 16:9
    Режим частоты кадров : Постоянный
    Частота кадров : 25, 000 кадров/сек
    Цветовое пространство : YUV
    Субдискретизация насыщенности : 4:2:0
    Битовая глубина : 8 бит
    Тип развёртки : Прогрессивная
    Бит/(Пиксели*Кадры) : 0.072
    Размер потока : 1, 29 Гбайт (93%)
    Default : Нет
    Forced : Нет
    Цветовой диапазон : Limited
    Основные цвета : BT.709
    Характеристики трансфера : BT.709
    Коэффициенты матрицы : BT.709
    DURATION : 00:49:13.360000000
    NUMBER_OF_FRAMES : 73834
    NUMBER_OF_BYTES : 1409002221
    _STATISTICS_WRITING_APP : mkvmerge v15.0.0 (\\'Duel with the Devil\\') 64-bit
    _STATISTICS_WRITING_DATE_UTC : 2017-10-08 09:37:54
    _STATISTICS_TAGS : BPS DURATION NUMBER_OF_FRAMES NUMBER_OF_BYTES
    Аудио
    Идентификатор : 2
    Формат : AC-3
    Формат/Информация : Audio Coding 3
    Расширение режима : CM (complete main)
    Параметр Endianness формата : Big
    Идентификатор кодека : A_AC3
    Продолжительность : 49 м.
    Вид битрейта : Постоянный
    Битрейт : 192 Кбит/сек
    Каналы : 2 канала
    Расположение каналов : Front: L R
    Частота : 44, 1 КГц
    Битовая глубина : 16 бит
    Метод сжатия : С потерями
    Задержка видео : -200 мс.
    Размер потока : 67, 6 Мбайт (5%)
    Default : Да
    Forced : Нет
    Этот уик-энд путешественницы Регина Тодоренко и Натали Неведрова проведут в нетуристическом индийском штате Керала. Это Индия, которой мы давно не видели, - колоритная, яркая и счастливая... Регина поселится в заповеднике бок о бок с дикими тиграми, увидит древний мистический ритуал Тэйям и благодаря лодочнику выучит индийские песни. Натали предстоит посетить самые масштабные события праздника Онома, отыскать тигров в индийских мужчинах и заново научиться... кушать!

    Скриншоты для ознакомления



    Все одноименные релизы в Клубе
    Время раздачи: 24/7. До первых 5 скачавших.

    Орел и решка. Рай и ад-2 (2017.10.08) WEB-DL [H.264/1080p-LQ] (сезон 15: Керала, Индия)
    загрузка...
    Рейтинг →
     (голосов: 1, оценка 3/5, голосовать можно 1 раз )

    Другие торренты по теме:

  • Орел и решка. Сезон №1. Шопинг. Стокгольм (2014.09.23) SATRip
  • Орел и решка. Сезон №9. Неизведанная Европа. Роттердам (2014.09.28) SATRip
  • Орел и решка. Сезон №1. Шопинг. Амман (2014.09.30) SATRip скачать через торрент бесплатно
  • Орел и решка. Сезон №9. Неизведанная Европа. Страна Басков (Испания) (2014.10.05) SATRip скачать через торрент бесплатно
  • Орел и решка. Сезон №9. Неизведанная Европа. Сараево (2014.10.06) SATRip скачать через торрент бесплатно
  • Орел и решка (1-8 сезон: 1-134 выпуски, Неизданное 1-3 выпуск) (2011 - 2014) SATRip, HDTVRip скачать через торрент бесплатно
  • Орел и решка. Сезон №1. Шопинг. Каир (2014.10.07) SATRip скачать через торрент бесплатно
  • Орел и решка. Сезон №9. Неизведанная Европа. Сарагоса (2014.10.19) WEBRip


    • Комментарии (0):

      Информация

      Информация

        Посетители, находящиеся в группе Гости, не могут оставлять комментарии в данной новости.

        ↓ Меню




        ↓ Опрос

        Вы добавили сайт в закладки?
        Да
        Нет


        Top 10 за месяц (Передачи)