.
Авторизация | Регистрация
Хочешь лучшие торренты? Добавь свой email!
Добавить

Торрент скачать бесплатно

» » Удивительные люди (2017.10.08) SATRip (сезон 2, выпуск 6) торрент скачать бесплатно




    Удивительные люди (2017.10.08) SATRip (сезон 2, выпуск 6) торрент скачать бесплатно

    Опубликовал: Админ | Дата: 9-10-2017, 05:00 | Просмотров: 0

    Телекомпания: Россия
    Жанр: ТВ-Шоу
    Ведущие: Александр Гуревич
    Участники: Ольга Шелест, Евгений Папунаишвили, Наталья Рагозина, Василий Ключарев и Юлия Сумачева

    Описание

    В новом сезон любимого сериалае удивительным людям предстоит пройти новые сложные и интересные испытания. В каждом выпуске принимают участие 7 конкурсантов - великолепная семерка. В конце программы зрительный зал путем голосования выбирает одного победителя, который произвел самое сильное впечатление. В финале победители всех предыдущих выпусков встретятся, чтобы побороться за главный приз - один миллион рублей!
    Выбрать лучшего участника зрителям в зале помогают звездные гости, которые комментируют выступления. Профессиональную оценку уникальным способностям конкурсантов дает эксперт программы, ведущий научный сотрудник Центра нейроэкономики и когнитивных исследований, кандидат биологических наук, профессор Василий Ключарев.
    Шоу Удивительные люди - не конкурс иллюзий, не шоу циркового мастерства или паранормальных способностей. Успех исполнения каждого номера имеет научное объяснение.
    Релиз от: -=DeMoH=-
    Продолжительность: ~ 01: 45: 43
    Качество видео: SATRip
    Субтитры: Отсутствуют
    Видео: MPEG4, XviD, 720x400 (16: 9), 25.000 fps, 1 799 Kbps (0.250 bit/pixel)
    Аудио: AC-3, 48.0 KHz, 2 ch, 192 Kbps, CBR
    Код: выделить все
    Общее
    Полное имя : D:\[1]\Удивительные люди\Удивительные люди. Сезон 2. Выпуск 06 (2017.10.08).avi
    Формат : AVI
    Формат/Информация : Audio Video Interleave
    Размер файла : 1, 48 Гбайт
    Продолжительность : 1 ч. 45 м.
    Общий поток : 2001 Кбит/сек
    Программа кодирования : VirtualDubMod 1.5.10.3 |www.virtualdub-fr.org|| (build 2550/release)
    Библиотека кодирования : VirtualDubMod build 2550/release
    Видео
    Идентификатор : 0
    Формат : MPEG-4 Visual
    Профиль формата : Advanced Simple@L5
    Параметр BVOP формата : 2
    Параметр QPel формата : Нет
    Параметр GMC формата : Без точки перехода
    Параметр матрицы формата : Default (H.263)
    Идентификатор кодека : XVID
    Идентификатор кодека/Подсказка : XviD
    Продолжительность : 1 ч. 45 м.
    Битрейт : 1799 Кбит/сек
    Ширина : 720 пикселей
    Высота : 400 пикселей
    Соотношение сторон : 16:9
    Частота кадров : 25, 000 кадров/сек
    Цветовое пространство : YUV
    Субдискретизация насыщенности : 4:2:0
    Битовая глубина : 8 бит
    Тип развёртки : Прогрессивная
    Метод сжатия : С потерями
    Бит/(Пиксели*Кадры) : 0.250
    Размер потока : 1, 33 Гбайт (90%)
    Библиотека кодирования : XviD 1.2.1 (UTC 2008-12-04)
    Аудио
    Идентификатор : 1
    Формат : AC-3
    Формат/Информация : Audio Coding 3
    Расширение режима : CM (complete main)
    Параметр Endianness формата : Big
    Идентификатор кодека : 2000
    Продолжительность : 1 ч. 45 м.
    Вид битрейта : Постоянный
    Битрейт : 192 Кбит/сек
    Каналы : 2 канала
    Расположение каналов : Front: L R
    Частота : 48, 0 КГц
    Битовая глубина : 16 бит
    Метод сжатия : С потерями
    Размер потока : 145 Мбайт (10%)
    Выравнивание : Разделение по промежуткам
    Продолжительность промежутка : 40 мс. (1, 00 видеокадр)
    Время предзагрузки промежутка : 500 мс.

    Скриншоты для ознакомления



    Все одноименные релизы в Клубе
    Время раздачи: 24/7. До первых 5 скачавших.

    Удивительные люди (2017.10.08) SATRip (сезон 2, выпуск 6)
    загрузка...
    Рейтинг →
     (голосов: 1, оценка 5/5, голосовать можно 1 раз )

    Другие торренты по теме:

  • Удивительные люди (2016.09.25) HDTVRip [H.264 / 720p] (выпуск 1)
  • Удивительные люди (2016.10.02) HDTVRip [H.264 / 720p] (выпуск 2)
  • Удивительные люди (2016.10.09) HDTVRip [H.264 / 720p] (выпуск 3)
  • Удивительные люди (2016.10.16) HDTVRip [H.264 / 720p] (выпуск 4)
  • Удивительные люди (2016.10.23) HDTVRip [H.264 / 720p] (выпуск 5)
  • Удивительные люди (2016.10.30) HDTVRip [H.264 / 720p] (выпуск 6)
  • Удивительные люди (2016.11.06) HDTVRip [H.264 / 720p] (выпуск 7, финал)
  • Удивительные люди (2017.09.03) SATRip (сезон 2, выпуск 1)


    • Комментарии (0):

      Информация

      Информация

        Посетители, находящиеся в группе Гости, не могут оставлять комментарии в данной новости.

        ↓ Меню




        ↓ Опрос

        Вы добавили сайт в закладки?
        Да
        Нет


        Top 10 за месяц (Передачи)