.
Авторизация | Регистрация
Хочешь лучшие торренты? Добавь свой email!
Добавить

Торрент скачать бесплатно

» » Пресс-конференция Романа Лабусова (05.10.2017) WEBRip [H.264 / 1080p-LQ] торрент скачать бесплатно




    Пресс-конференция Романа Лабусова (05.10.2017) WEBRip [H.264 / 1080p-LQ] торрент скачать бесплатно

    Опубликовал: Админ | Дата: 9-10-2017, 05:00 | Просмотров: 0

    Производство: Министерство Информации Донецкой Народной Республики
    Жанр: Политика, пресс-конференция

    Описание

    Начальник подразделения шифровальной связи СБУ, подполковник Роман Лабусов перешел на сторону Донецкой Народной Республики. О мотивах своего поступка сотрудник украинских спецслужб рассказал 5 октября в ходе пресс-конференции в Донецке: Один из моих мотивов – текст присяги, который гласит, что военнослужащий клянется перед гражданами Украины быть преданным и верным, действовать в их интересах...
    Журналисты ДНР и центральных российских телеканалов ВГТРК, НТВ, Звезда задали Лабусову прямые вопросы, в том числе и о сбитом боинге MH17 в 2014 году.
    Продолжительность: 00: 26: 39
    Качество видео: WEBRip
    Видео: AVC/H.264, 1920x1080 (16: 9), ~1098 Kbps
    Аудио: AAC, 2 ch, 126 Kbps

    General
    Unique ID : 234296022245799283807782559689225436556 (0xB043C5C32D120CE88DE8AE3AF1EE7D8C)
    Complete name : D: \Film\Пресс-конференция Романа Лабусова.mkv
    Format : Matroska
    Format version : Version 4/Version 2
    File size : 234 MiB
    Duration : 26 min 39 s
    Overall bit rate : 1 227 kb/s
    Encoded date : UTC 2017-10-08 06: 41: 54
    Writing application : mkvmerge v16.0.0 (\\'Protest\\') 64-bit
    Writing library : libebml v1.3.5 + libmatroska v1.4.8
    Cover : Yes
    Attachments : cover.png
    Video
    ID : 1
    Format : AVC
    Format/Info : Advanced Video Codec
    Format profile : High@L4
    Format settings : CABAC/3 Ref Frames
    Format settings, CABAC : Yes
    Format settings, RefFrames : 3 frames
    Codec ID : V_MPEG4/ISO/AVC
    Duration : 26 min 39 s
    Bit rate : 1 098 kb/s
    Width : 1 920 pixels
    Height : 1 080 pixels
    Display aspect ratio : 16: 9
    Frame rate mode : Constant
    Frame rate : 25.000 FPS
    Color space : YUV
    Chroma subsampling : 4: 2: 0
    Bit depth : 8 bits
    Scan type : Progressive
    Bits/(Pixel*Frame) : 0.021
    Stream size : 209 MiB (90%)
    Language : Russian
    Default : Yes
    Forced : No
    Color range : Limited
    Color primaries : BT.709
    Transfer characteristics : BT.709
    Matrix coefficients : BT.709
    Audio
    ID : 2
    Format : AAC
    Format/Info : Advanced Audio Codec
    Format profile : LC
    Codec ID : A_AAC-2
    Duration : 26 min 39 s
    Bit rate : 126 kb/s
    Channel(s) : 2 channels
    Channel positions : Front: L R
    Sampling rate : 44.1 kHz
    Frame rate : 43.066 FPS (1024 SPF)
    Compression mode : Lossy
    Stream size : 23.9 MiB (10%)
    Language : Russian
    Default : Yes
    Forced : No

    Скриншоты для ознакомления





    Все одноименные релизы в Клубе
    Время раздачи: 07: 00-23: 00 (до появления первых 3-5 скачавших)

    Пресс-конференция Романа Лабусова (05.10.2017) WEBRip [H.264/1080p-LQ]
    загрузка...
    Рейтинг →
     (голосов: 1, оценка 4/5, голосовать можно 1 раз )

    Другие торренты по теме:

  • Пресс-конференция Президента РФ Владимира Путина в Уфе на саммите ШОС и БРИКС (2015.07.10) SATRip скачать через торрент бесплатно
  • Пресс-конференция С. Лаврова по итогам 70-й ассамблеи ООН (01.10.2015) HDTVRip [720p-LQ] скачать через торрент бесплатно
  • Пресс-конференция концерна «Алмаз-Антей» по причинам трагедии MH17 (2015) HDTVRip [H.264] [MP4|1280x720] скачать через торрент бесплатно
  • Пресс-конференция В.В.Путина по итогам саммита G20 (16.11.2015) HDTVRip [720p-LQ] скачать через торрент бесплатно
  • Пресс-конференция Б.Х.Обамы по итогам саммита G20 (16.11.2015) HDTVRip [720p-LQ] скачать через торрент бесплатно
  • Пресс-конференция В.Путина и Ф.Олланда (26.11.2015) HDTVRip [720p-LQ] скачать через торрент бесплатно
  • Политика. Пресс-конференция Владимира Путина (2015.12.17) SATRip скачать через торрент бесплатно
  • Пресс-конференция Президента России В. В. Путина (2015.12.17) SATRip скачать через торрент бесплатно


    • Комментарии (0):

      Информация

      Информация

        Посетители, находящиеся в группе Гости, не могут оставлять комментарии в данной новости.

        ↓ Меню




        ↓ Опрос

        Вы добавили сайт в закладки?
        Да
        Нет


        Top 10 за месяц (Передачи)