.
Авторизация | Регистрация
Хочешь лучшие торренты? Добавь свой email!
Добавить

Торрент скачать бесплатно

» » Военная приемка. На колесах в броне на Эльбрус. Часть-3. (08.10.2017) SATRip торрент скачать бесплатно




    Военная приемка. На колесах в броне на Эльбрус. Часть-3. (08.10.2017) SATRip торрент скачать бесплатно

    Опубликовал: Админ | Дата: 9-10-2017, 05:00 | Просмотров: 0

    Телекомпания: ОАО ТРК ВС РФ ЗВЕЗДА
    Жанр: Документальный
    Режиссер: Александр Шильников
    Ведущий : Алексей Егоров

    Описание

    Программа военная приемка продолжает уникальное восхождение. Вместе с российской военной техникой мы поднимаемся на самую высокую гору России и Европы – Эльбрус. Именно таким образом проверяют новейшие броневики и грузовики перед принятием на вооружение . К восхождению технику специально не готовили, наоборот усложняли задачу - в кузове каждой машины находится дополнительный груз. Мы покажем вам уникальные кадры, как колонна преодолевала осыпающиеся крутые склоны и ледники в попытке покорить недосягаемую прежде высоту. Вы узнаете, как водители-испытатели справляются с горной болезнью, в то время, как любая их ошибка может завершиться падением в пропасть и смертью всего экипажа.
    И, наконец, зрители программы увидят каким образом на вершине горы испытывают не только новейшую технику, но и необходимый комплект выживания для водителей Министерства обороны РФ, работающих в экстремальных условиях.

    Релиз от: centoriuse
    Продолжительность: 00: 38: 38
    Качество видео: SATRip
    Видео : MPEG4, XviD, 720x400 (16: 9), 25.000 fps, 1 808 Kbps (0.251 bit/pixel)
    Аудио : AC-3, 48.0 KHz, 2 ch, 192 Kbps, CBR

    Общее
    Полное имя : F: \видео\фильмы\Военная приемка\Военная приемка (2017.10.08) SATRip.avi
    Формат : AVI
    Формат/Информация : Audio Video Interleave
    Размер файла : 556 Мбайт
    Продолжительность : 38 м. 42 с.
    Общий поток : 2010 Кбит/сек
    Программа кодирования : VirtualDubMod 1.5.10.3 |www.virtualdub-fr.org|| (build 2550/release)
    Библиотека кодирования : VirtualDubMod build 2550/release
    Видео
    Идентификатор : 0
    Формат : MPEG-4 Visual
    Профиль формата : Advanced Simple@L5
    Настройки формата : BVOP1
    Параметр BVOP формата : 1
    Параметр QPel формата : Нет
    Параметр GMC формата : Без точки перехода
    Параметр матрицы формата : Default (H.263)
    Идентификатор кодека : XVID
    Идентификатор кодека/Подсказка : XviD
    Продолжительность : 38 м. 42 с.
    Битрейт : 1808 Кбит/сек
    Ширина : 720 пикселей
    Высота : 400 пикселей
    Соотношение сторон : 16: 9
    Частота кадров : 25, 000 кадров/сек
    Цветовое пространство : YUV
    Субдискретизация насыщенности : 4: 2: 0
    Битовая глубина : 8 бит
    Тип развёртки : Прогрессивная
    Метод сжатия : С потерями
    Бит/(Пиксели*Кадры) : 0.251
    Размер потока : 500 Мбайт (90%)
    Библиотека кодирования : XviD 1.2.1 (UTC 2008-12-04)
    Аудио
    Идентификатор : 1
    Формат : AC-3
    Формат/Информация : Audio Coding 3
    Параметр Endianness формата : Big
    Идентификатор кодека : 2000
    Продолжительность : 38 м. 42 с.
    Вид битрейта : Постоянный
    Битрейт : 192 Кбит/сек
    Каналы : 2 канала
    Расположение каналов : Front: L R
    Частота : 48, 0 КГц
    Частота кадров : 31, 250 кадров/сек (1536 SPF)
    Битовая глубина : 16 бит
    Метод сжатия : С потерями
    Размер потока : 53, 2 Мбайт (10%)
    Выравнивание : Разделение по промежуткам
    Продолжительность промежутка : 40 мс. (1, 00 видеокадр)
    Время предзагрузки промежутка : 500 мс.
    ServiceKind/String : Complete Main

    Скриншоты для ознакомления



    Все одноименные релизы в Клубе
    Время раздачи: 24/7 (до появления первых 3-5 скачавших)

    Военная приемка. На колесах в броне на Эльбрус. Часть-3. (08.10.2017) SATRip
    загрузка...
    Рейтинг →
     (голосов: 1, оценка 4/5, голосовать можно 1 раз )

    Другие торренты по теме:

  • Военная приемка. Армия против санкций (2015) SATRip скачать через торрент бесплатно
  • Военная приемка. Новые русские броневики (2015) SATRip скачать через торрент бесплатно
  • Военная приемка. Ратник. Русские доспехи будущего (2015) SATRip скачать через торрент бесплатно
  • Военная приемка. Раптор. Гоночный катер спецназа (2015) SATRip скачать через торрент бесплатно
  • Военная приемка. Испытательная база комплекса «Патриот» (2015) SATRip скачать через торрент бесплатно
  • Военная приемка. Спасти рядового раненого (2015) SATRip скачать через торрент бесплатно
  • Военная приемка. Ми-28Н. Прирожденный охотник (2015) SATRip скачать через торрент бесплатно
  • Военная приемка. ВДВ. Никто, кроме них (2015) HDTVRip [720p-LQ] скачать через торрент бесплатно


    • Комментарии (0):

      Информация

      Информация

        Посетители, находящиеся в группе Гости, не могут оставлять комментарии в данной новости.

        ↓ Меню




        ↓ Опрос

        Вы добавили сайт в закладки?
        Да
        Нет


        Top 10 за месяц (Передачи)