.
Авторизация | Регистрация
Хочешь лучшие торренты? Добавь свой email!
Добавить

Торрент скачать бесплатно

» » Лига смеха (2017.10.06) WEB-DLRip (сезон 3, выпуск 8: Летний кубок, Часть 2) торрент скачать бесплатно




    Лига смеха (2017.10.06) WEB-DLRip (сезон 3, выпуск 8: Летний кубок, Часть 2) торрент скачать бесплатно

    Опубликовал: Админ | Дата: 8-10-2017, 05:00 | Просмотров: 0

    Телекомпания: 1+1
    Жанр: Юмор
    Выпущено: Украина, Студия 95 квартал, Телеканал 1+1
    Жюри: Юрий Горбунов, Елена Кравец, Потап, Антон Лирник, Сергей Сивохо и Игорь Ласточкин
    Ведущий: Владимир Зеленский

    Описание

    Третий чемпионат Украины по юмору начинается. Теперь по пятницам самые смешные представители молодежи будут соревноваться в том, кто сможет больше надорвать животы зрителям. Состав жюри остался неизменным, судить будут Потап, Юрий Горбунов, Елена Кравец, Оля Полякова, Игорь Ласточкин, Сергей Сивохо и Антон Лирник. Отборочные игры перетекут в сезон любимого сериала, в котором шансы на победу имеет кто угодно, ведь триумфатор прошлого года, Прозрачный гонщик, показал, что даже нестандартный юмор имеет право не только на жизнь, но и на признание.
    Релиз от: svlesin
    Продолжительность: 01: 39: 44
    Качество видео: WEB-DLRip
    Субтитры: Отсутствуют
    Видео: MPEG4, XviD, 720x400 (16: 9), 25.000 fps, 1 800 Kbps (0.250 bit/pixel)
    Аудио: AC-3, 44.1 KHz, 2 ch, 192 Kbps, CBR
    Код: выделить все
    Общее
    Полное имя : D:\[1]\Лига смеха\Лига смеха. Сезон 3. Выпуск 08 (2017.10.06)_WEB-DLRip.avi
    Формат : AVI
    Формат/Информация : Audio Video Interleave
    Размер файла : 1, 39 Гбайт
    Продолжительность : 1 ч. 39 м.
    Общий поток : 1998 Кбит/сек
    Название фильма : Liga smeha.3.08(2017.10.06)_nnm-club.name
    Программа кодирования : VirtualDubModRus 1.5.10.2 (build 2542/release)
    Библиотека кодирования : VirtualDubMod build 2542/release
    Видео
    Идентификатор : 0
    Формат : MPEG-4 Visual
    Профиль формата : Advanced Simple@L5
    Параметр BVOP формата : 1
    Параметр QPel формата : Нет
    Параметр GMC формата : Без точки перехода
    Параметр матрицы формата : Default (H.263)
    Идентификатор кодека : XVID
    Идентификатор кодека/Подсказка : XviD
    Продолжительность : 1 ч. 39 м.
    Битрейт : 1800 Кбит/сек
    Ширина : 720 пикселей
    Высота : 400 пикселей
    Соотношение сторон : 16:9
    Частота кадров : 25, 000 кадров/сек
    Цветовое пространство : YUV
    Субдискретизация насыщенности : 4:2:0
    Битовая глубина : 8 бит
    Тип развёртки : Прогрессивная
    Метод сжатия : С потерями
    Бит/(Пиксели*Кадры) : 0.250
    Размер потока : 1, 25 Гбайт (90%)
    Библиотека кодирования : XviD 67
    Аудио
    Идентификатор : 1
    Формат : AC-3
    Формат/Информация : Audio Coding 3
    Расширение режима : CM (complete main)
    Параметр Endianness формата : Big
    Идентификатор кодека : 2000
    Продолжительность : 1 ч. 39 м.
    Вид битрейта : Постоянный
    Битрейт : 192 Кбит/сек
    Каналы : 2 канала
    Расположение каналов : Front: L R
    Частота : 44, 1 КГц
    Битовая глубина : 16 бит
    Метод сжатия : С потерями
    Размер потока : 137 Мбайт (10%)
    Выравнивание : Разделение по промежуткам
    Продолжительность промежутка : 160 мс. (4, 00 видеокадра)
    Время предзагрузки промежутка : 640 мс.

    Скриншоты для ознакомления



    Все одноименные релизы в Клубе
    Время раздачи: 24/7. До первых 5 скачавших.

    Лига смеха (2017.10.06) WEB-DLRip (сезон 3, выпуск 8: Летний кубок, Часть 2)
    загрузка...
    Рейтинг →
     (голосов: 1, оценка 4/5, голосовать можно 1 раз )

    Другие торренты по теме:

  • Лига смеха (2017.10.20) WEB-DL [H.264 / 1080p-LQ] (сезон 3, выпуск 10)
  • Лига смеха (2017.10.20) WEB-DLRip (сезон 3, выпуск 10)
  • Лига смеха. Выпуск 4 (2015.05.30) SATRip скачать через торрент бесплатно
  • Лига смеха. Выпуск 5 (2015.06.06) SATRip скачать через торрент бесплатно
  • Лига смеха. Выпуск 6 (2015.10.03) SATRip скачать через торрент бесплатно
  • Лига смеха. Выпуск 7 (2015.10.10) SATRip скачать через торрент бесплатно
  • Лига смеха. Выпуск 8. Финал (2016.01.02) SATRip скачать через торрент бесплатно
  • Лига смеха. Выпуск 9. Зимний кубок (2016.01.09) SATRip скачать через торрент бесплатно


    • Комментарии (0):

      Информация

      Информация

        Посетители, находящиеся в группе Гости, не могут оставлять комментарии в данной новости.

        ↓ Меню




        ↓ Опрос

        Вы добавили сайт в закладки?
        Да
        Нет


        Top 10 за месяц (Передачи)

        Nat Geo Wild: Дикая Иберия / Wild Iberia [сезон 1 серии 1-4 из 4] (2014) HDTVRip [H.264 / 720p] скачать через торрент бесплатно

        (скачиваний: 6)
        Бренды Советской Эпохи (серии 84 из) (2013-2016) SATRip

        (скачиваний: 5)
        Сергей Тармашев | Что посеешь (2016) [FB2]

        (скачиваний: 5)
        Ольга Гусейнова | Галактика. Принцесса и Генерал (2016) [FB2]

        (скачиваний: 4)
        Короли фанеры (2017.10.07) SATRip (выпуск 4)

        (скачиваний: 4)
        Вести недели (01.10.2017) SATRip

        (скачиваний: 3)
        Международный авиационно-космический салон МАКС-2017 в Жуковском (2017) HDTV [H.264 / 1080p-LQ]

        (скачиваний: 3)
        Алекс Новак, Юрий Трогиянов | Добро с кулаками. Принципы мышления четырехкратного чемпиона мира по кикбоксингу в реальной жизни (2017) [FB2]

        (скачиваний: 3)
        Журнал | Рецепты на бис. Спецвыпуск №1 (19) (2017) [PDF]

        (скачиваний: 3)
        Винсент. Нерассказанная история нашего дяди. Биография Винсента Ван Гога / Vincent - The Untold Story of our Uncle, a biography the life & times of Vincent van Gogh (2012) DVB [H.264] (Серии 1-7 из 7)

        (скачиваний: 3)