.
Авторизация | Регистрация
Хочешь лучшие торренты? Добавь свой email!
Добавить

Торрент скачать бесплатно

» » Открытый микрофон (2017.10.06) WEB-DL [H.264 / 720p-LQ] (сезон 2, выпуск 8) торрент скачать бесплатно




    Открытый микрофон (2017.10.06) WEB-DL [H.264 / 720p-LQ] (сезон 2, выпуск 8) торрент скачать бесплатно

    Опубликовал: Админ | Дата: 8-10-2017, 05:00 | Просмотров: 0

    Телекомпания: ТНТ
    Жанр: Юмор
    Ведущий: Андрей Бебуришвили
    Жюри: Руслан Белый, Юлия Ахмедова, Слава Комиссаренко и Тимур Каргинов

    Описание

    18 августа на ТНТ начнется 2-ой сезон любимого сериала оригинального юмористического шоу талантов – Открытый микрофон. Участниками проекта станут молодые (и не очень), никому неизвестные стендап-комики, которые будут бороться за возможность попасть в основной состав одного из самых популярных комедийных шоу в России – Stand Up на ТНТ. Несмотря на то, что многие участники Открытого микрофона не так давно занимаются стендапом, их выступления окажутся неожиданно смешными, свежими и непохожими на монологи комиков шоу Stand Up. Уже после отборочного тура станет ясно, что новички легко могут составить конкуренцию мэтрам в жанре стендап и даже перетянуть одеяло популярности на себя. Насколько реальна эта угроза - судить зрителям Открытого микрофона.
    Открытый микрофон - это не очередной развлекательный проект, это социальный лифт для комиков, работающих в самом сложном и откровенном юмористическом жанре. Все, о чем рассказывают эти ребята, основано на их реальной жизни и переживаниях. И здесь не может быть запретных тем или сторонней редактуры – только правда, только острые шутки, только стендап в Открытом микрофоне на ТНТ.
    Релиз от: svlesin
    Продолжительность: 00: 49: 46
    Качество видео: WEB-DL
    Субтитры: Отсутствуют
    Видео: AVC, 1280x720 (16: 9), 25.000 fps, 3 511 Kbps (0.152 bit/pixel)
    Аудио: AC-3, 44.1 KHz, 2 ch, 192 Kbps, CBR
    Код: выделить все
    Общее
    Уникальный идентификатор : 197211068387567899795401372286766830555 (0x945D785ED8597278A87EF4E6CDD853DB)
    Полное имя : D:\[1]\Открытый микрофон\Открытый микрофон. Сезон 2. Выпуск 08 (2017.10.06)_720.mkv
    Формат : Matroska
    Версия формата : Version 4/Version 2
    Размер файла : 1, 31 Гбайт
    Продолжительность : 49 м.
    Общий поток : 3779 Кбит/сек
    Название фильма : Открытый микрофон. Сезон 2. Выпуск 08 (2017.10.06)_720_nnm-club.name
    Дата кодирования : UTC 2017-10-07 04:03:02
    Программа кодирования : mkvmerge v15.0.0 (\\'Duel with the Devil\\') 64-bit
    Библиотека кодирования : libebml v1.3.5 + libmatroska v1.4.5
    DURATION : 00:49:46.841000000
    NUMBER_OF_FRAMES : 85755
    NUMBER_OF_BYTES : 71684178
    _STATISTICS_WRITING_APP : mkvmerge v15.0.0 (\\'Duel with the Devil\\') 64-bit
    _STATISTICS_WRITING_DATE_UTC : 2017-10-07 04:03:02
    _STATISTICS_TAGS : BPS DURATION NUMBER_OF_FRAMES NUMBER_OF_BYTES
    Видео
    Идентификатор : 1
    Формат : AVC
    Формат/Информация : Advanced Video Codec
    Профиль формата :High@L3.1
    Параметр CABAC формата : Да
    Параметр ReFrames формата : 1 кадр
    Параметр GOP формата : M=1, N=12
    Идентификатор кодека : V_MPEG4/ISO/AVC
    Продолжительность : 49 м.
    Битрейт : 3511 Кбит/сек
    Ширина : 1280 пикселей
    Высота : 720 пикселей
    Соотношение сторон : 16:9
    Режим частоты кадров : Постоянный
    Частота кадров : 25, 000 кадров/сек
    Стандарт вещания : Component
    Цветовое пространство : YUV
    Субдискретизация насыщенности : 4:2:0
    Битовая глубина : 8 бит
    Тип развёртки : Прогрессивная
    Бит/(Пиксели*Кадры) : 0.152
    Размер потока : 1, 22 Гбайт (93%)
    Default : Да
    Forced : Нет
    Цветовой диапазон : Limited
    Аудио
    Идентификатор : 2
    Формат : AC-3
    Формат/Информация : Audio Coding 3
    Расширение режима : CM (complete main)
    Параметр Endianness формата : Big
    Идентификатор кодека : A_AC3
    Продолжительность : 49 м.
    Вид битрейта : Постоянный
    Битрейт : 192 Кбит/сек
    Каналы : 2 канала
    Расположение каналов : Front: L R
    Частота : 44, 1 КГц
    Битовая глубина : 16 бит
    Метод сжатия : С потерями
    Размер потока : 68, 4 Мбайт (5%)
    Default : Да
    Forced : Нет
    · Отбор в команды
    Начинающие комики выступят перед жюри со своим стендапом. Участник проходит в команду, если его выбрал хотя бы один из наставников. К концу этапа будет сформировано 4 команды по 8 человек, которые и начнут борьбу за главный приз проекта.
    · Дуэли
    Участникам предстоит поработать со своими наставниками и написать одно новое выступление. В каждой программе на сцену поднимутся по 2 участника от каждой команды. По итогам выступления наставник должен будет оставить в проекте только одного из них.
    · Концерты
    Каждая команда готовит концерт с участием всех комиков. Один выпуск – один концерт каждой команды. В конце программы наставник выберет того, кто покинет шоу.
    · Полуфинал
    Комики борются за право попасть в финал Открытого микрофона. Как всегда, выступления им помогают готовить наставники. В финал проходят по два участника от каждой команды.
    · Финал
    8 финалистов выйдут на легендарную сцену проекта Stand Up на ТНТ! Каждый комик покажет свое финальное выступление. Члены жюри совместно выберут победителя первого сезон любимого сериалаа шоу Открытый микрофон и нового постоянного комика проекта StandUp на ТНТ!

    Скриншоты для ознакомления



    Все одноименные релизы в Клубе
    Время раздачи: 24/7. До первых 5 скачавших.

    Открытый микрофон (2017.10.06) WEB-DL [H.264/720p-LQ] (сезон 2, выпуск 8)
    загрузка...
    Рейтинг →
     (голосов: 1, оценка 4/5, голосовать можно 1 раз )

    Другие торренты по теме:

  • Открытый микрофон (2017.10.20) SATRip (сезон 2, выпуск 10)
  • Открытый микрофон (2017.10.20) HDTV [H.264 / 1080i] (сезон 2, выпуск 10)
  • Открытый микрофон (2017.10.20) WEB-DL [H.264 / 720p-LQ] (сезон 2, выпуск 10)
  • Открытый микрофон (2017.10.20) WEB-DLRip (сезон 2, выпуск 10)
  • Открытый микрофон (2017.02.17) WEB-DL [H.264 / 720p-LQ] (выпуск 4)
  • Открытый микрофон (2017.02.17) SATRip (выпуск 4)
  • Открытый микрофон (2017.02.10) WEB-DL [H.264 / 720p-LQ] (выпуск 3)
  • Открытый микрофон (2017.02.10) SATRip (выпуск 3)


    • Комментарии (0):

      Информация

      Информация

        Посетители, находящиеся в группе Гости, не могут оставлять комментарии в данной новости.

        ↓ Меню




        ↓ Опрос

        Вы добавили сайт в закладки?
        Да
        Нет


        Top 10 за месяц (Передачи)

        Nat Geo Wild: Дикая Иберия / Wild Iberia [сезон 1 серии 1-4 из 4] (2014) HDTVRip [H.264 / 720p] скачать через торрент бесплатно

        (скачиваний: 6)
        Бренды Советской Эпохи (серии 84 из) (2013-2016) SATRip

        (скачиваний: 5)
        Сергей Тармашев | Что посеешь (2016) [FB2]

        (скачиваний: 5)
        Ольга Гусейнова | Галактика. Принцесса и Генерал (2016) [FB2]

        (скачиваний: 4)
        Короли фанеры (2017.10.07) SATRip (выпуск 4)

        (скачиваний: 4)
        Вести недели (01.10.2017) SATRip

        (скачиваний: 3)
        Международный авиационно-космический салон МАКС-2017 в Жуковском (2017) HDTV [H.264 / 1080p-LQ]

        (скачиваний: 3)
        Алекс Новак, Юрий Трогиянов | Добро с кулаками. Принципы мышления четырехкратного чемпиона мира по кикбоксингу в реальной жизни (2017) [FB2]

        (скачиваний: 3)
        Журнал | Рецепты на бис. Спецвыпуск №1 (19) (2017) [PDF]

        (скачиваний: 3)
        Винсент. Нерассказанная история нашего дяди. Биография Винсента Ван Гога / Vincent - The Untold Story of our Uncle, a biography the life & times of Vincent van Gogh (2012) DVB [H.264] (Серии 1-7 из 7)

        (скачиваний: 3)