.
Авторизация | Регистрация
Хочешь лучшие торренты? Добавь свой email!
Добавить

Торрент скачать бесплатно

» » Футбол. Чемпионат Мира 2018. Отборочный турнир. Европа. Группа F. 9-й тур. Англия – Словения (05.10.2017) HDTVRip [H.264 / 720p-LQ] [hand made 50fps] торрент скачать бесплатно




    Футбол. Чемпионат Мира 2018. Отборочный турнир. Европа. Группа F. 9-й тур. Англия – Словения (05.10.2017) HDTVRip [H.264 / 720p-LQ] [hand made 50fps] торрент скачать бесплатно

    Опубликовал: Админ | Дата: 8-10-2017, 05:00 | Просмотров: 0

    Телекомпания: Матч ТВ HD
    Жанр: Спорт
    Комментатор: Юрий Розанов

    Описание
    05 октября 2017 года, четверг. 21: 45 МСК
    Чемпионат Мира 2018. Отборочный турнир. Европа.
    Группа F. 9-й тур. Англия – Словения
    Стадион: Уэмбли (Лондон, Англия), вместимость: 90000
    Главный судья: Феликс Цвайер (Германия)
    Ассистент: Торстен Шифнер (Германия)
    Ассистент: Марко Ахмюллер (Германия)
    Резервный: Кристиан Дингерт (Германия)
    Продолжительность: 01: 47: 55
    Качество видео: HDTVRip
    Язык озвучки: Русский
    Субтитры: отсутствуют
    Видео: AVC/H.264, 1280x720 (16: 9), ~3415 Kbps, 50 fps
    Аудио: AC3, 2 ch, 48 kHz, 128 Kbps

    Общее
    Уникальный идентификатор : 215223923827995730534109507049467453687 (0xA1EA9EB604CBAD62BD372125C9C0A0F7)
    Полное имя : F: \SPORT\Футбол\ЧМ-2018\Чемпионат Мира 2018.ОT. Европа. 9-й тур\(05.10.2017)_FIFA QWCh 2018.UEFA.Gr F.9t. England - Slovenia.mkv
    Формат : Matroska
    Версия формата : Version 4/Version 2
    Размер файла : 2, 67 Гбайт
    Продолжительность : 1 ч. 47 м.
    Общий поток : 3545 Кбит/сек
    Дата кодирования : UTC 2017-10-07 02: 25: 54
    Программа кодирования : mkvmerge v16.0.0 (\\'Protest\\') 32-bit
    Библиотека кодирования : libebml v1.3.5 + libmatroska v1.4.8
    Видео
    Идентификатор : 1
    Формат : AVC
    Формат/Информация : Advanced Video Codec
    Профиль формата : High@L4.1
    Параметр CABAC формата : Да
    Параметр RefFrames формата : 4 кадра
    Идентификатор кодека : V_MPEG4/ISO/AVC
    Продолжительность : 1 ч. 47 м.
    Битрейт : 3415 Кбит/сек
    Ширина : 1280 пикселей
    Высота : 720 пикселей
    Соотношение сторон : 16: 9
    Режим частоты кадров : Постоянный
    Частота кадров : 50, 000 кадров/сек
    Цветовое пространство : YUV
    Субдискретизация насыщенности : 4: 2: 0
    Битовая глубина : 8 бит
    Тип развёртки : Прогрессивная
    Бит/(Пиксели*Кадры) : 0.074
    Размер потока : 2, 57 Гбайт (96%)
    Default : Да
    Forced : Нет
    Аудио
    Идентификатор : 2
    Формат : AC-3
    Формат/Информация : Audio Coding 3
    Параметр Endianness формата : Big
    Идентификатор кодека : A_AC3
    Продолжительность : 1 ч. 47 м.
    Вид битрейта : Постоянный
    Битрейт : 128 Кбит/сек
    Каналы : 2 канала
    Расположение каналов : Front: L R
    Частота : 48, 0 КГц
    Частота кадров : 31, 250 кадров/сек (1536 SPF)
    Битовая глубина : 16 бит
    Метод сжатия : С потерями
    Размер потока : 98, 8 Мбайт (4%)
    Язык : Russian
    ServiceKind/String : Complete Main
    Default : Да
    Forced : Нет

    Скриншоты для ознакомления



    Футбол. Чемпионат Мира 2018 в Клубе
    Время раздачи: 24/7 (до 1 месяца)

    Футбол. Чемпионат Мира 2018. Отборочный турнир. Европа. Группа F. 9-й тур. Англия – Словения (05.10.2017) HDTVRip [H.264/720p-LQ] [hand made 50fps]
    загрузка...
    Рейтинг →
     (голосов: 1, оценка 5/5, голосовать можно 1 раз )

    Другие торренты по теме:

  • Футбол. Чемпионат Европы 2016. Группа D. 1-й тур. Испания - Чехия (13.06.2016) HDTVRip [H.264 / 1080p-LQ] (Матч Футбол 1 HD)
  • Футбол. Чемпионат Европы 2016. Группа E. 1-й тур. Ирландия - Швеция (13.06.2016) HDTVRip [H.264 / 1080p-LQ] (Матч Футбол 1 HD)
  • Футбол. Чемпионат Европы 2016. Группа E. 1-й тур. Бельгия - Италия (13.06.2016) HDTVRip [H.264 / 1080p-LQ] (Матч Футбол 1 HD)
  • Футбол. Чемпионат Европы 2016. Группа E. 1-й тур. Бельгия - Италия (13.06.2016) HDTV [H.264 / 1080i](Футбол 1 HD)
  • Футбол. Чемпионат Мира 2014. Финал. Германия - Аргентина (2014.07.13) HDTVRip [H.264 / 720p] [hand made 50fps]
  • Футбол. Чемпионат Мира 2014. Все голы (2014) HDTVRip [H.264 / 720p] [hand made 50fps]
  • Футбол. Чемпионат Мира 2014. Матч за 1-2 место. Финал. Германия – Аргентина + Награждение (2014.07.13) HDTV [H.264 / 1080i]
  • Футбол. Чемпионат Мира 2014. Матч за 1-2 место. Финал. Германия - Аргентина (2014.07.13) WEB-DL [H.264 / 720p-LQ]


    • Комментарии (0):

      Информация

      Информация

        Посетители, находящиеся в группе Гости, не могут оставлять комментарии в данной новости.

        ↓ Меню




        ↓ Опрос

        Вы добавили сайт в закладки?
        Да
        Нет


        Top 10 за месяц (Передачи)