.
Авторизация | Регистрация
Хочешь лучшие торренты? Добавь свой email!
Добавить

Торрент скачать бесплатно

» » Юмор! Юмор! Юмор! (2017.10.07) SATRip торрент скачать бесплатно




    Юмор! Юмор! Юмор! (2017.10.07) SATRip торрент скачать бесплатно

    Опубликовал: Админ | Дата: 8-10-2017, 05:00 | Просмотров: 0

    Телекомпания: Россия
    Жанр: Юмор
    Ведущие: Евгений Петросян
    Участники: Елена Степаненко, Святослав Ещенко, Геннадий Ветров, Юрий Гальцев, Сергей Дроботенко, Михаил Смирнов, Александр Морозов, Новые русские бабки, Карен Аванесян, Владимир Данилец и Владимир Моисеенко, Обид Асомов, Виктор Разумовский.

    Описание

    1 апреля много не бывает! Автор и ведущий Евгений Петросян считает, что этот (да и следующие за ним дни!) не стоит использовать для глупых розыгрышей. В этот день нужно делать забавные, приятные сюрпризы и рассматривать его как призыв к веселому взгляду на жизнь, к стремлению радоваться жизни и друг другу. Именно поэтому зрители увидят фрагменты из самых смешных номеров мэтра юмористического жанра эстрады и его многочисленных коллег.
    Режиссер фильма Константин Владимиров приготовил массу ярких спецэффектов, которые разукрасят своим неповторимым калейдоскопом этот веселый фильм-концерт. А сам Евгений Петросян так закружился в этом юмористическом вихре, что в буквальном смысле потерял голову!
    Релиз от: -=DeMoH=-
    Продолжительность: 01: 21: 36
    Качество видео: SATRip
    Субтитры: Отсутствуют
    Видео: MPEG4, XviD, 720x400 (16: 9), 25.000 fps, 1 800 Kbps (0.250 bit/pixel)
    Аудио: AC-3, 48.0 KHz, 2 ch, 192 Kbps, CBR
    Код: выделить все
    Общее
    Полное имя : D:\[1]\Юмор! Юмор! Юмор!\Юмор! Юмор! Юмор! (2017.10.07).avi
    Формат : AVI
    Формат/Информация : Audio Video Interleave
    Размер файла : 1, 14 Гбайт
    Продолжительность : 1 ч. 21 м.
    Общий поток : 2002 Кбит/сек
    Программа кодирования : VirtualDubModRus 1.5.10.1 (build 2439/release)
    Библиотека кодирования : VirtualDubMod build 2439/release
    Видео
    Идентификатор : 0
    Формат : MPEG-4 Visual
    Профиль формата : Advanced Simple@L5
    Параметр BVOP формата : 2
    Параметр QPel формата : Нет
    Параметр GMC формата : Без точки перехода
    Параметр матрицы формата : Default (H.263)
    Идентификатор кодека : XVID
    Идентификатор кодека/Подсказка : XviD
    Продолжительность : 1 ч. 21 м.
    Битрейт : 1800 Кбит/сек
    Ширина : 720 пикселей
    Высота : 400 пикселей
    Соотношение сторон : 16:9
    Частота кадров : 25, 000 кадров/сек
    Цветовое пространство : YUV
    Субдискретизация насыщенности : 4:2:0
    Битовая глубина : 8 бит
    Тип развёртки : Прогрессивная
    Метод сжатия : С потерями
    Бит/(Пиксели*Кадры) : 0.250
    Размер потока : 1, 03 Гбайт (90%)
    Библиотека кодирования : XviD 1.2.1 (UTC 2008-12-04)
    Аудио
    Идентификатор : 1
    Формат : AC-3
    Формат/Информация : Audio Coding 3
    Расширение режима : CM (complete main)
    Параметр Endianness формата : Big
    Идентификатор кодека : 2000
    Продолжительность : 1 ч. 21 м.
    Вид битрейта : Постоянный
    Битрейт : 192 Кбит/сек
    Каналы : 2 канала
    Расположение каналов : Front: L R
    Частота : 48, 0 КГц
    Битовая глубина : 16 бит
    Метод сжатия : С потерями
    Размер потока : 112 Мбайт (10%)
    Выравнивание : Разделение по промежуткам
    Продолжительность промежутка : 40 мс. (1, 00 видеокадр)
    Время предзагрузки промежутка : 500 мс.

    Скриншоты для ознакомления



    Все одноименные релизы в Клубе
    Время раздачи: 24/7. До первых 5 скачавших.

    Юмор! Юмор! Юмор! (2017.10.07) SATRip
    загрузка...
    Рейтинг →
     (голосов: 1, оценка 3/5, голосовать можно 1 раз )

    Другие торренты по теме:

  • Юмор! Юмор! Юмор! (2016.04.03) SATRip (выпуск 1)
  • Юмор! Юмор! Юмор! (2016.10.01) SATRip
  • Юмор! Юмор! Юмор! (2016.10.22) SATRip
  • Юмор! Юмор! Юмор! (2016.11.05) SATRip
  • Юмор! Юмор! Юмор! (2016.12.03) SATRip
  • Юмор! Юмор! Юмор! (2016.12.17) SATRip
  • Юмор! Юмор! Юмор! (2016.12.24) SATRip
  • Юмор! Юмор! Юмор! (2017.02.18) SATRip


    • Комментарии (0):

      Информация

      Информация

        Посетители, находящиеся в группе Гости, не могут оставлять комментарии в данной новости.

        ↓ Меню




        ↓ Опрос

        Вы добавили сайт в закладки?
        Да
        Нет


        Top 10 за месяц (Передачи)