.
Авторизация | Регистрация
Хочешь лучшие торренты? Добавь свой email!
Добавить

Торрент скачать бесплатно

» » Love Is / Comedy Club / Comedy Woman (2017.10.06) HDTV [H.264 / 1080i-LQ] (выпуск 8) торрент скачать бесплатно




    Love Is / Comedy Club / Comedy Woman (2017.10.06) HDTV [H.264 / 1080i-LQ] (выпуск 8) торрент скачать бесплатно

    Опубликовал: Админ | Дата: 8-10-2017, 05:00 | Просмотров: 0

    Телекомпания: ТНТ
    Жанр: Юмор, ТВ-Шоу
    Режиссер: Рустам Ильясов
    Ведущие: Наталья Еприкян
    Участники: Екатерина Варнава, Марина Федункив, Наталья Еприкян, Мария Кравченко, Екатерина Скулкина, Надежда Сысоева, Наталия Медведева, Татьяна Морозова, Сергей Лазарев

    Описание

    Love is — это экшен, мелодрама, триллер, но прежде всего комедия, снятая по стандартам Голливуда и Болливуда. Сочная качественная картинка, киношные спецэффекты и реалистичные декорации ставят проект ТНТ особняком, позволяя говорить о рождении нового жанра — кино-скетчком. Love is — это пять разных историй о пяти совершенно непохожих друг на друга женщинах. Единственное, что их объединяет, — искреннее желание обрести счастье, любовь и мать ее — нежность.
    Релиз от: 25Kuzmich
    Продолжительность: ~ 00: 23: 04
    Качество видео: HDTV
    Субтитры: Отсутствуют
    Видео: AVC, 1920x1080 (16: 9), 25.000 fps, 7 370 Kbps (0.142 bit/pixel)
    Аудио: MP2, 48.0 KHz, 2 ch, 192 Kbps, CBR
    Код: выделить все
    Общее
    Идентификатор : 1 (0x1)
    Полное имя : D:\[1]\Love Is\Love Is. Выпуск 08 (2017.10.06)_1080.ts
    Формат : MPEG-TS
    Размер файла : 1, 28 Гбайт
    Продолжительность : 23 м.
    Режим общего битрейта : Переменный
    Общий поток : 7957 Кбит/сек
    Видео
    Идентификатор : 207 (0xCF)
    Идентификатор меню : 2207 (0x89F)
    Формат : AVC
    Формат/Информация : Advanced Video Codec
    Профиль формата : High@L4
    Параметр CABAC формата : Да
    Параметр ReFrames формата : 4 кадра
    Идентификатор кодека : 27
    Продолжительность : 23 м.
    Битрейт : 7370 Кбит/сек
    Ширина : 1920 пикселей
    Высота : 1080 пикселей
    Соотношение сторон : 16:9
    Частота кадров : 25, 000 кадров/сек
    Стандарт вещания : Component
    Цветовое пространство : YUV
    Субдискретизация насыщенности : 4:2:0
    Битовая глубина : 8 бит
    Тип развёртки : Чересстрочная
    Порядок развёртки : Верхнее поле первое
    Бит/(Пиксели*Кадры) : 0.142
    Размер потока : 1, 19 Гбайт (93%)
    Цветовой диапазон : Limited
    Основные цвета : BT.709
    Характеристики трансфера : BT.709
    Коэффициенты матрицы : BT.709
    Аудио
    Идентификатор : 307 (0x133)
    Идентификатор меню : 2207 (0x89F)
    Формат : MPEG Audio
    Версия формата : Version 1
    Профиль формата : Layer 2
    Идентификатор кодека : 3
    Продолжительность : 23 м.
    Вид битрейта : Постоянный
    Битрейт : 192 Кбит/сек
    Каналы : 2 канала
    Частота : 48, 0 КГц
    Метод сжатия : С потерями
    Задержка видео : -120 мс.
    Размер потока : 31, 7 Мбайт (2%)
    Язык : Russian

    Скриншоты для ознакомления



    Все одноименные релизы в Клубе
    Время раздачи: 24/7. До первых 5 скачавших.

    Love Is/Comedy Club/Comedy Woman (2017.10.06) HDTV [H.264/1080i-LQ] (выпуск 8)
    загрузка...
    Рейтинг →
     (голосов: 1, оценка 3/5, голосовать можно 1 раз )

    Другие торренты по теме:

  • Love Is / Comedy Club / Comedy Woman (2017.08.25) WEB-DL [H.264 / 720p-LQ] (выпуск 2)
  • Love Is / Comedy Club / Comedy Woman (2017.08.25) WEB-DLRip (выпуск 2)
  • Love Is / Comedy Club / Comedy Woman (2017.08.25) WEB-DL [H.264 / 720p-LQ] (выпуск 1)
  • Love Is / Comedy Club / Comedy Woman (2017.08.25) WEB-DLRip (выпуск 1)
  • Love Is / Comedy Club / Comedy Woman (2017.08.25) SATRip (выпуск 2)
  • Love Is / Comedy Club / Comedy Woman (2017.08.25) SATRip (выпуск 1)
  • Love Is / Comedy Club / Comedy Woman (2017.08.25) HDTV [H.264 / 1080i-LQ] (выпуск 2)
  • Love Is / Comedy Club / Comedy Woman (2017.08.25) HDTV [H.264 / 1080i-LQ] (выпуск 1)


    • Комментарии (0):

      Информация

      Информация

        Посетители, находящиеся в группе Гости, не могут оставлять комментарии в данной новости.

        ↓ Меню




        ↓ Опрос

        Вы добавили сайт в закладки?
        Да
        Нет


        Top 10 за месяц (Передачи)