.
Авторизация | Регистрация
Хочешь лучшие торренты? Добавь свой email!
Добавить

Торрент скачать бесплатно

» » Футбол. Чемпионат Мира 2018. Отборочный турнир. Европа. 9-й тур. Обзор матчей 1-го дня (05.10.2017) HDTVRip [H.264 / 720p-LQ] [hand made 50fps] торрент скачать бесплатно




    Футбол. Чемпионат Мира 2018. Отборочный турнир. Европа. 9-й тур. Обзор матчей 1-го дня (05.10.2017) HDTVRip [H.264 / 720p-LQ] [hand made 50fps] торрент скачать бесплатно

    Опубликовал: Админ | Дата: 8-10-2017, 05:00 | Просмотров: 0

    Телекомпания: Матч! Футбол 1 HD
    Жанр: Телепередача, Спорт
    Комментатор: Эльвин Керимов

    Описание
    05 октября 2017 года, четверг
    Обзор матчей отборочного турнира Чемпионата Мира 2018. Европа. 9-й тур
    День № 1:
    Группа C, 19: 00 МСК Азербайджан – Чехия
    Группа C, 21: 45 МСК Северная Ирландия – Германия
    Группа C, 21: 45 МСК Сан-Марино – Норвегия
    Группа E, 19: 00 МСК Армения – Польша
    Группа E, 21: 45 МСК Черногория – Дания
    Группа E, 21: 45 МСК Румыния – Казахстан
    Группа F, 21: 45 МСК Англия – Словения
    Группа F, 21: 45 МСК Мальта – Литва
    Группа F, 21: 45 МСК Шотландия – Словакия
    Релиз от: Вайделот
    Продолжительность: 00: 46: 19
    Качество видео: HDTVRip
    Язык озвучки: Русский
    Субтитры: отсутствуют
    Видео: AVC/H.264, 1280x720 (16: 9), ~3704 Kbps, 50 fps
    Аудио: AC3, 2 ch, 48 kHz, 128 Kbps

    Общее
    Уникальный идентификатор : 277210902432513159806610081510439205038 (0xD08CE0B6E177D3365AE8BA45ACFB38AE)
    Полное имя : F: \SPORT\Футбол\ЧМ-2018\Чемпионат Мира 2018.ОT. Европа. 9-й тур\(05.10.2017)_Футбол.ЧМ-2018.ОT.Eвропа. Обзор матчей 9 турa. 1-й день.mkv
    Формат : Matroska
    Версия формата : Version 4/Version 2
    Размер файла : 1, 26 Гбайт
    Продолжительность : 46 м. 18 с.
    Общий поток : 3910 Кбит/сек
    Программа кодирования : XviD4PSP 7.0.408 DAILY
    Библиотека кодирования : Lavf57.71.100
    ErrorDetectionType : Per level 1
    ENCODING_INFO : MATROSKA, WEBM MKV 720p/H264 X264 CBR 4000kbps HQ/AC3 AC3 CBR 128kbps
    Видео
    Идентификатор : 1
    Формат : AVC
    Формат/Информация : Advanced Video Codec
    Профиль формата : High@L3.2
    Параметр CABAC формата : Да
    Параметр RefFrames формата : 4 кадра
    Идентификатор кодека : V_MPEG4/ISO/AVC
    Продолжительность : 46 м. 18 с.
    Битрейт : 3704 Кбит/сек
    Номинальный битрейт : 4000 Кбит/сек
    Ширина : 1280 пикселей
    Высота : 720 пикселей
    Соотношение сторон : 16: 9
    Режим частоты кадров : Постоянный
    Частота кадров : 50, 000 кадров/сек
    Цветовое пространство : YUV
    Субдискретизация насыщенности : 4: 2: 0
    Битовая глубина : 8 бит
    Тип развёртки : Прогрессивная
    Бит/(Пиксели*Кадры) : 0.080
    Размер потока : 1, 20 Гбайт (95%)
    Библиотека кодирования : x264 core 152 r2851M ba24899
    Настройки программы : cabac=1/ref=3/deblock=1: -2: -2/analyse=0x3: 0x133/me=hex/subme=7/psy=1/psy_rd=1.00: 0.20/mixed_ref=1/me_range=16/chroma_me=1/trellis=1/8x8dct=1/cqm=0/deadzone=21, 11/fast_pskip=1/chroma_qp_offset=-3/threads=5/lookahead_threads=1/sliced_threads=0/nr=0/decimate=1/interlaced=0/bluray_compat=0/constrained_intra=0/bframes=3/b_pyramid=2/b_adapt=2/b_bias=0/direct=3/weightb=1/open_gop=0/weightp=2/keyint=500/keyint_min=50/scenecut=40/intra_refresh=0/rc_lookahead=40/rc=cbr/mbtree=1/bitrate=4000/ratetol=1.0/qcomp=0.60/qpmin=0/qpmax=69/qpstep=4/vbv_maxrate=4000/vbv_bufsize=2857/nal_hrd=none/filler=0/ip_ratio=1.40/aq=1: 1.00
    Default : Да
    Forced : Нет
    DURATION : 00: 46: 18.500000000
    ENCODING_INFO : x264 - core 148 - H.264/MPEG-4 AVC codec - Copyleft 2003-2015 -http://www.videolan.org/x264.html- options: cabac=1 ref=3 deblock=1: 0: 0 analyse=0x3: 0x133 me=hex subme=7 psy=1 psy_rd=1.00: 0.00 mixed_ref=1 me_range=16 chroma_me=1 trellis=1 8x8dct=1 cqm=0 deadzone=21, 11 fast_pskip=1 chroma_qp_offset=-2 threads=6 lookahead_threads=1 sliced_threads=0 nr=0 decimate=1 interlaced=0 bluray_compat=0 constrained_intra=0 bframes=3 b_pyramid=2 b_adapt=1 b_bias=0 direct=1 weightb=1 open_gop=0 weightp=2 keyint=250 keyint_min=25 scenecut=40 intra_refresh=0 rc_lookahead=40 rc=crf mbtree=1 crf=20.0 qcomp=0.60 qpmin=10 qpmax=51 qpstep=4 ip_ratio=1.40 aq=1: 1.00
    Аудио
    Идентификатор : 2
    Формат : AC-3
    Формат/Информация : Audio Coding 3
    Параметр Endianness формата : Big
    Идентификатор кодека : A_AC3
    Продолжительность : 46 м. 18 с.
    Вид битрейта : Постоянный
    Битрейт : 128 Кбит/сек
    Каналы : 2 канала
    Расположение каналов : Front: L R
    Частота : 48, 0 КГц
    Частота кадров : 31, 250 кадров/сек (1536 SPF)
    Битовая глубина : 16 бит
    Метод сжатия : С потерями
    Размер потока : 42, 4 Мбайт (3%)
    Язык : Russian
    ServiceKind/String : Complete Main
    Default : Да
    Forced : Нет
    DURATION : 00: 46: 18.528000000
    Меню
    00: 00: 00.000 : : 01
    00: 01: 05.266 : : 02
    00: 06: 08.226 : : 03
    00: 06: 28.432 : : 04
    00: 13: 35.752 : : 05
    00: 13: 47.058 : : 06
    00: 19: 53.278 : : 07
    00: 21: 10.224 : : 08
    00: 21: 49.043 : : 09
    00: 22: 03.790 : : 10
    00: 30: 54.870 : : 11
    00: 31: 19.936 : : 12
    00: 39: 18.536 : : 13
    00: 40: 35.422 : : 14
    00: 40: 47.008 : : 15
    00: 43: 06.428 : : 16
    00: 43: 16.214 : : 17
    00: 43: 37.154 : : 18
    00: 43: 50.220 : : 19

    Скриншоты для ознакомления



    Футбол. Чемпионат Мира 2018 в Клубе
    Время раздачи: 24/7 (до 1 месяца)

    Футбол. Чемпионат Мира 2018. Отборочный турнир. Европа. 9-й тур. Обзор матчей 1-го дня (05.10.2017) HDTVRip [H.264/720p-LQ] [hand made 50fps]
    загрузка...
    Рейтинг →
     (голосов: 1, оценка 3/5, голосовать можно 1 раз )

    Другие торренты по теме:

  • Футбол. Чемпионат Европы 2016. Группа D. 1-й тур. Испания - Чехия (13.06.2016) HDTVRip [H.264 / 1080p-LQ] (Матч Футбол 1 HD)
  • Футбол. Чемпионат Европы 2016. Группа E. 1-й тур. Ирландия - Швеция (13.06.2016) HDTVRip [H.264 / 1080p-LQ] (Матч Футбол 1 HD)
  • Футбол. Чемпионат Европы 2016. Группа E. 1-й тур. Бельгия - Италия (13.06.2016) HDTVRip [H.264 / 1080p-LQ] (Матч Футбол 1 HD)
  • Футбол. Чемпионат Европы 2016. Группа E. 1-й тур. Бельгия - Италия (13.06.2016) HDTV [H.264 / 1080i](Футбол 1 HD)
  • Футбол. Чемпионат Мира 2014. Финал. Германия - Аргентина (2014.07.13) HDTVRip [H.264 / 720p] [hand made 50fps]
  • Футбол. Чемпионат Мира 2014. Все голы (2014) HDTVRip [H.264 / 720p] [hand made 50fps]
  • Футбол. Чемпионат Мира 2014. Матч за 1-2 место. Финал. Германия – Аргентина + Награждение (2014.07.13) HDTV [H.264 / 1080i]
  • Футбол. Чемпионат Мира 2014. Матч за 1-2 место. Финал. Германия - Аргентина (2014.07.13) WEB-DL [H.264 / 720p-LQ]


    • Комментарии (0):

      Информация

      Информация

        Посетители, находящиеся в группе Гости, не могут оставлять комментарии в данной новости.

        ↓ Меню




        ↓ Опрос

        Вы добавили сайт в закладки?
        Да
        Нет


        Top 10 за месяц (Передачи)

        Nat Geo Wild: Дикая Иберия / Wild Iberia [сезон 1 серии 1-4 из 4] (2014) HDTVRip [H.264 / 720p] скачать через торрент бесплатно

        (скачиваний: 6)
        Бренды Советской Эпохи (серии 84 из) (2013-2016) SATRip

        (скачиваний: 5)
        Сергей Тармашев | Что посеешь (2016) [FB2]

        (скачиваний: 5)
        Ольга Гусейнова | Галактика. Принцесса и Генерал (2016) [FB2]

        (скачиваний: 4)
        Короли фанеры (2017.10.07) SATRip (выпуск 4)

        (скачиваний: 4)
        Вести недели (01.10.2017) SATRip

        (скачиваний: 3)
        Международный авиационно-космический салон МАКС-2017 в Жуковском (2017) HDTV [H.264 / 1080p-LQ]

        (скачиваний: 3)
        Алекс Новак, Юрий Трогиянов | Добро с кулаками. Принципы мышления четырехкратного чемпиона мира по кикбоксингу в реальной жизни (2017) [FB2]

        (скачиваний: 3)
        Журнал | Рецепты на бис. Спецвыпуск №1 (19) (2017) [PDF]

        (скачиваний: 3)
        Винсент. Нерассказанная история нашего дяди. Биография Винсента Ван Гога / Vincent - The Untold Story of our Uncle, a biography the life & times of Vincent van Gogh (2012) DVB [H.264] (Серии 1-7 из 7)

        (скачиваний: 3)