.
Авторизация | Регистрация
Хочешь лучшие торренты? Добавь свой email!
Добавить

Торрент скачать бесплатно

» » Баскетбол. Единая Лига ВТБ 2017-2018. УНИКС (Россия) – Зенит (Россия) (05.10.2017) HDTVRip [H.264 / 720p-LQ] [hand made 50fps] торрент скачать бесплатно




    Баскетбол. Единая Лига ВТБ 2017-2018. УНИКС (Россия) – Зенит (Россия) (05.10.2017) HDTVRip [H.264 / 720p-LQ] [hand made 50fps] торрент скачать бесплатно

    Опубликовал: Админ | Дата: 8-10-2017, 05:00 | Просмотров: 0

    Телекомпания: Матч ТВ HD
    Жанр: Спорт
    Комментаторы: Роман Скворцов, Дмитрий Матеранский

    Описание
    05 октября 2017 года, четверг. 17: 00 МСК
    Единая Лига ВТБ 2017-2018. Регулярный чемпионат
    УНИКС (Казань, Россия) – Зенит (Санкт-Петербург, Россия)
    Стадион: Баскет-холл (Казань, Россия), 3885 зрителей (56 % при вместимости 7000)
    Судьи: Алексей Чудин (Россия), Семён Овинов (Россия), Александр Романов (Россия)
    Релиз от: Багга17879
    Продолжительность: 01: 57: 22
    Качество видео: HDTVRip
    Язык озвучки: Русский
    Субтитры: отсутствуют
    Видео: AVC/H.264, 1280x720 (16: 9), ~4000 Kbps, 50 fps
    Аудио: AAC, 2 ch, 48 kHz, 128 Kbps
    Код: выделить все

    Общее
    Уникальный идентификатор : 218687675640814120548224602327883337442 (0xA485B6DC445E7404A716C7E9EC464EE2)
    Полное имя : F:\SPORT\Баскетбол\ВТБ - 2017-2018\(05.10.2017)_VTB United League 17-18.RS. UNICS(Russia) - Zenit(Russia).mkv
    Формат : Matroska
    Версия формата : Version 4/Version 2
    Размер файла : 3, 40 Гбайт
    Продолжительность : 1 ч. 57 м.
    Общий поток : 4143 Кбит/сек
    Дата кодирования : UTC 2017-10-07 13:06:27
    Программа кодирования : mkvmerge v16.0.0 (\\'Protest\\') 32-bit
    Библиотека кодирования : libebml v1.3.5 + libmatroska v1.4.8
    Видео
    Идентификатор : 1
    Формат : AVC
    Формат/Информация : Advanced Video Codec
    Профиль формата :High@L3.2
    Параметр CABAC формата : Да
    Параметр RefFrames формата : 4 кадра
    Идентификатор кодека : V_MPEG4/ISO/AVC
    Продолжительность : 1 ч. 57 м.
    Битрейт : 4000 Кбит/сек
    Ширина : 1280 пикселей
    Высота : 720 пикселей
    Соотношение сторон : 16:9
    Режим частоты кадров : Постоянный
    Частота кадров : 50, 000 кадров/сек
    Цветовое пространство : YUV
    Субдискретизация насыщенности : 4:2:0
    Битовая глубина : 8 бит
    Тип развёртки : Прогрессивная
    Бит/(Пиксели*Кадры) : 0.087
    Размер потока : 3, 29 Гбайт (97%)
    Библиотека кодирования : x264 core 146 r2538 121396c
    Настройки программы : cabac=1/ref=3/deblock=1:0:0/analyse=0x3:0x113/me=hex/subme=7/psy=1/psy_rd=1.00:0.00/mixed_ref=1/me_range=16/chroma_me=1/trellis=1/8x8dct=1/cqm=0/deadzone=21, 11/fast_pskip=1/chroma_qp_offset=-2/threads=12/lookahead_threads=2/sliced_threads=0/nr=0/decimate=1/interlaced=0/bluray_compat=0/constrained_intra=0/bframes=3/b_pyramid=2/b_adapt=1/b_bias=0/direct=1/weightb=1/open_gop=0/weightp=2/keyint=250/keyint_min=25/scenecut=40/intra_refresh=0/rc_lookahead=40/rc=abr/mbtree=1/bitrate=4000/ratetol=1.0/qcomp=0.60/qpmin=0/qpmax=69/qpstep=4/ip_ratio=1.40/aq=1:1.00
    Default : Да
    Forced : Нет
    Аудио
    Идентификатор : 2
    Формат : AAC
    Формат/Информация : Advanced Audio Codec
    Профиль формата : LC
    Идентификатор кодека : A_AAC
    Продолжительность : 1 ч. 57 м.
    Битрейт : 128 Кбит/сек
    Каналы : 2 канала
    Расположение каналов : Front: L R
    Частота : 48, 0 КГц
    Частота кадров : 46, 875 кадров/сек (1024 SPF)
    Метод сжатия : С потерями
    Задержка видео : 9 мс.
    Размер потока : 107 Мбайт (3%)
    Язык : Russian
    Default : Да
    Forced : Нет

    Скриншоты для ознакомления



    Все одноименные релизы в Клубе
    Время раздачи: 24/7 (около 1 месяца)

    Баскетбол. Единая Лига ВТБ 2017-2018. УНИКС (Россия) – Зенит (Россия) (05.10.2017) HDTVRip [H.264/720p-LQ] [hand made 50fps]
    загрузка...
    Рейтинг →
     (голосов: 1, оценка 5/5, голосовать можно 1 раз )

    Другие торренты по теме:

  • Баскетбол. Единая лига ВТБ.Сезон 2015-2016.Финал.1-й матч. ЦСКА(Москва, Россия) - УНИКС(Казань, Россия) (01.06.2016) HDTVRip [H.264 / 720p-LQ]
  • Баскетбол. Единая лига ВТБ.Сезон 2015-2016. Финал.2-й матч. ЦСКА(Москва, Россия) - УНИКС(Казань, Россия) (03.06.2016) HDTVRip [H.264 / 720p-LQ]
  • Баскетбол. Единая лига ВТБ.Сезон 2015-2016. Финал. 3-й матч. УНИКС(Казань)-ЦСКА(Москва) (06.06.2016) HDTVRip [H.264 / 720p-LQ] [hand made 50fps]
  • Баскетбол. Единая лига ВТБ.Сезон 2015-2016.Финал.4-й матч. УНИКС(Казань)-ЦСКА(Москва) (08.06.2016) HDTVRip [H.264 / 720p-LQ] [hand made 50fps]
  • Баскетбол. Единая Лига ВТБ 2016-2017. Регулярный чемпионат. Астана (Астана, Казахстан) - Автодор (Саратов, Россия) (02.10.2016) SATRip
  • Баскетбол. Единая Лига ВТБ 2016-2017. Регулярный чемпионат. УНИКС (Россия) - Нижний Новгород (Россия) (02.10.2016) HDTVRip [H.264 / 720p-LQ][hand made 50fps]
  • Баскетбол. Единая Лига ВТБ 2016-2017. Регулярный чемпионат. Астана (Казахстан) - УНИКС (Россия) (05.10.2016) WEB-DL [H.264 / 576p-LQ]
  • Баскетбол. Единая Лига ВТБ 2016-2017. Регулярный чемпионат. Зенит (Россия) - Калев (Эстония) (18.10.2016) WEBRip [H.264 / 1080p-LQ]


    • Комментарии (0):

      Информация

      Информация

        Посетители, находящиеся в группе Гости, не могут оставлять комментарии в данной новости.

        ↓ Меню




        ↓ Опрос

        Вы добавили сайт в закладки?
        Да
        Нет


        Top 10 за месяц (Передачи)