.
Авторизация | Регистрация
Хочешь лучшие торренты? Добавь свой email!
Добавить

Торрент скачать бесплатно

» » Баскетбол. Единая Лига ВТБ 2017-2018. Химки (Россия) – Цмоки-Минск (Беларусь) (05.10.2017) WEB-DLRip [H.264 / 720p-LQ] торрент скачать бесплатно




    Баскетбол. Единая Лига ВТБ 2017-2018. Химки (Россия) – Цмоки-Минск (Беларусь) (05.10.2017) WEB-DLRip [H.264 / 720p-LQ] торрент скачать бесплатно

    Опубликовал: Админ | Дата: 8-10-2017, 05:00 | Просмотров: 0

    Жанр: Спорт
    Комментатор: Петр Буйницкий

    Описание
    05 октября 2017 года, четверг. 19: 30 МСК
    Единая Лига ВТБ 2017-2018. Регулярный чемпионат
    Химки (Химки, Россия) – Цмоки-Минск (Минск, Беларусь)
    Стадион: Баскетбольный центр Московской области (Химки, Россия), 1113 зрителей (19 % при вместимости 6000)
    Судьи: Ингус Бауманис (Латвия), Юргис Лавринавичюс (Литва), Роберт Выклицки (Чехия)
    Релиз от: Багга17879
    Продолжительность: 01: 43: 12
    Качество видео: WEB-DLRip
    Язык озвучки: Русский
    Субтитры: отсутствуют
    Видео: AVC/H.264, 1280x720 (16: 9), ~3023 Kbps
    Аудио: AAC, 2 ch, 44, 1 kHz, ~130 Kbps
    Код: выделить все

    Общее
    Уникальный идентификатор : 248714720100247419112800309618407412979 (0xBB1CB673D7557C1F8DE39419262094F3)
    Полное имя : F:\SPORT\Баскетбол\ВТБ - 2017-2018\(05.10.2017)_VTB United League 17-18.RS. Khimki(Russia) - Tsmoki-Minsk(Belarus).mkv
    Формат : Matroska
    Версия формата : Version 4/Version 2
    Размер файла : 2, 27 Гбайт
    Продолжительность : 1 ч. 43 м.
    Общий поток : 3155 Кбит/сек
    Дата кодирования : UTC 2017-10-07 15:28:10
    Программа кодирования : mkvmerge v16.0.0 (\\'Protest\\') 32-bit
    Библиотека кодирования : libebml v1.3.5 + libmatroska v1.4.8
    Видео
    Идентификатор : 1
    Формат : AVC
    Формат/Информация : Advanced Video Codec
    Профиль формата :Baseline@L3.1
    Параметр CABAC формата : Нет
    Параметр RefFrames формата : 1 кадр
    Идентификатор кодека : V_MPEG4/ISO/AVC
    Продолжительность : 1 ч. 43 м.
    Битрейт : 3023 Кбит/сек
    Ширина : 1280 пикселей
    Высота : 720 пикселей
    Соотношение сторон : 16:9
    Режим частоты кадров : Постоянный
    Частота кадров : 24, 945 кадров/сек
    Цветовое пространство : YUV
    Субдискретизация насыщенности : 4:2:0
    Битовая глубина : 8 бит
    Тип развёртки : Прогрессивная
    Бит/(Пиксели*Кадры) : 0.131
    Размер потока : 2, 18 Гбайт (96%)
    Default : Да
    Forced : Нет
    Аудио
    Идентификатор : 2
    Формат : AAC
    Формат/Информация : Advanced Audio Codec
    Профиль формата : LC
    Идентификатор кодека : A_AAC
    Продолжительность : 1 ч. 43 м.
    Битрейт : 130 Кбит/сек
    Каналы : 2 канала
    Расположение каналов : Front: L R
    Частота : 44, 1 КГц
    Частота кадров : 43, 066 кадра/сек (1024 SPF)
    Метод сжатия : С потерями
    Задержка видео : 16 мс.
    Размер потока : 95, 7 Мбайт (4%)
    Язык : Russian
    Default : Да
    Forced : Нет

    Скриншоты для ознакомления



    Все одноименные релизы в Клубе
    Время раздачи: 24/7 (около 1 месяца)

    Баскетбол. Единая Лига ВТБ 2017-2018. Химки (Россия) – Цмоки-Минск (Беларусь) (05.10.2017) WEB-DLRip [H.264/720p-LQ]
    загрузка...
    Рейтинг →
     (голосов: 1, оценка 5/5, голосовать можно 1 раз )

    Другие торренты по теме:

  • Баскетбол. Единая лига ВТБ.Сезон 2015-2016.Финал.1-й матч. ЦСКА(Москва, Россия) - УНИКС(Казань, Россия) (01.06.2016) HDTVRip [H.264 / 720p-LQ]
  • Баскетбол. Единая лига ВТБ.Сезон 2015-2016. Финал.2-й матч. ЦСКА(Москва, Россия) - УНИКС(Казань, Россия) (03.06.2016) HDTVRip [H.264 / 720p-LQ]
  • Баскетбол. Единая лига ВТБ.Сезон 2015-2016. Финал. 3-й матч. УНИКС(Казань)-ЦСКА(Москва) (06.06.2016) HDTVRip [H.264 / 720p-LQ] [hand made 50fps]
  • Баскетбол. Единая лига ВТБ.Сезон 2015-2016.Финал.4-й матч. УНИКС(Казань)-ЦСКА(Москва) (08.06.2016) HDTVRip [H.264 / 720p-LQ] [hand made 50fps]
  • Баскетбол. Единая Лига ВТБ 2016-2017. Регулярный чемпионат. Астана (Астана, Казахстан) - Автодор (Саратов, Россия) (02.10.2016) SATRip
  • Баскетбол. Единая Лига ВТБ 2016-2017. Регулярный чемпионат. УНИКС (Россия) - Нижний Новгород (Россия) (02.10.2016) HDTVRip [H.264 / 720p-LQ][hand made 50fps]
  • Баскетбол. Единая Лига ВТБ 2016-2017. Регулярный чемпионат. Астана (Казахстан) - УНИКС (Россия) (05.10.2016) WEB-DL [H.264 / 576p-LQ]
  • Баскетбол. Единая Лига ВТБ 2016-2017. Регулярный чемпионат. Зенит (Россия) - Калев (Эстония) (18.10.2016) WEBRip [H.264 / 1080p-LQ]


    • Комментарии (0):

      Информация

      Информация

        Посетители, находящиеся в группе Гости, не могут оставлять комментарии в данной новости.

        ↓ Меню




        ↓ Опрос

        Вы добавили сайт в закладки?
        Да
        Нет


        Top 10 за месяц (Передачи)

        Nat Geo Wild: Дикая Иберия / Wild Iberia [сезон 1 серии 1-4 из 4] (2014) HDTVRip [H.264 / 720p] скачать через торрент бесплатно

        (скачиваний: 6)
        Бренды Советской Эпохи (серии 84 из) (2013-2016) SATRip

        (скачиваний: 5)
        Сергей Тармашев | Что посеешь (2016) [FB2]

        (скачиваний: 5)
        Ольга Гусейнова | Галактика. Принцесса и Генерал (2016) [FB2]

        (скачиваний: 4)
        Короли фанеры (2017.10.07) SATRip (выпуск 4)

        (скачиваний: 4)
        Вести недели (01.10.2017) SATRip

        (скачиваний: 3)
        Международный авиационно-космический салон МАКС-2017 в Жуковском (2017) HDTV [H.264 / 1080p-LQ]

        (скачиваний: 3)
        Алекс Новак, Юрий Трогиянов | Добро с кулаками. Принципы мышления четырехкратного чемпиона мира по кикбоксингу в реальной жизни (2017) [FB2]

        (скачиваний: 3)
        Журнал | Рецепты на бис. Спецвыпуск №1 (19) (2017) [PDF]

        (скачиваний: 3)
        Винсент. Нерассказанная история нашего дяди. Биография Винсента Ван Гога / Vincent - The Untold Story of our Uncle, a biography the life & times of Vincent van Gogh (2012) DVB [H.264] (Серии 1-7 из 7)

        (скачиваний: 3)