.
Авторизация | Регистрация
Хочешь лучшие торренты? Добавь свой email!
Добавить

Торрент скачать бесплатно

» » Баскетбол. Единая Лига ВТБ 2017-2018. Енисей (Россия) – ЦСКА (Россия) (06.10.2017) WEB-DLRip торрент скачать бесплатно




    Баскетбол. Единая Лига ВТБ 2017-2018. Енисей (Россия) – ЦСКА (Россия) (06.10.2017) WEB-DLRip торрент скачать бесплатно

    Опубликовал: Админ | Дата: 8-10-2017, 05:00 | Просмотров: 0

    Телекомпания: Матч! Наш спорт
    Жанр: Спорт
    Комментатор: Владимир Гомельский

    Описание
    06 октября 2017 года, пятница. 15: 30 МСК
    Единая Лига ВТБ 2017-2018. Регулярный чемпионат
    Енисей (Красноярск, Россия) – ЦСКА (Москва, Россия)
    Стадион: Арена-Север (Красноярск, Россия), 3000 зрителей (115 % при вместимости 2600)
    Судьи: Ингус Бауманис (Латвия), Антон Махлин (Россия), Илья Путенко (Россия)
    Релиз от: Багга17879
    Продолжительность: 01: 41: 57
    Качество видео: WEB-DLRip
    Язык озвучки: Русский
    Видео: AVC/H.264, 720x400, ~2100 Kbps
    Аудио: AAC, 2 ch, 44, 1 kHz, 128 Kbps
    Код: выделить все

    Общее
    Уникальный идентификатор : 236117637227894904947875712666158193422 (0xB1A29A50AD07ADC9AFB33F6349975B0E)
    Полное имя : F:\SPORT\Баскетбол\ВТБ - 2017-2018\(06.10.2017)_VTB United League 17-18.RS. Enisey(Russia) - CSKA(Russia)_400p.mkv
    Формат : Matroska
    Версия формата : Version 4/Version 2
    Размер файла : 1, 59 Гбайт
    Продолжительность : 1 ч. 41 м.
    Общий поток : 2226 Кбит/сек
    Дата кодирования : UTC 2017-10-07 16:44:16
    Программа кодирования : mkvmerge v16.0.0 (\\'Protest\\') 32-bit
    Библиотека кодирования : libebml v1.3.5 + libmatroska v1.4.8
    Видео
    Идентификатор : 1
    Формат : AVC
    Формат/Информация : Advanced Video Codec
    Профиль формата : High@L3
    Параметр CABAC формата : Да
    Параметр RefFrames формата : 4 кадра
    Идентификатор кодека : V_MPEG4/ISO/AVC
    Продолжительность : 1 ч. 41 м.
    Битрейт : 2100 Кбит/сек
    Ширина : 720 пикселей
    Высота : 400 пикселей
    Соотношение сторон : 16:9
    Режим частоты кадров : Постоянный
    Частота кадров : 25, 000 кадров/сек
    Цветовое пространство : YUV
    Субдискретизация насыщенности : 4:2:0
    Битовая глубина : 8 бит
    Тип развёртки : Прогрессивная
    Бит/(Пиксели*Кадры) : 0.292
    Размер потока : 1, 49 Гбайт (94%)
    Библиотека кодирования : x264 core 146 r2538 121396c
    Настройки программы : cabac=1/ref=3/deblock=1:0:0/analyse=0x3:0x113/me=hex/subme=7/psy=1/psy_rd=1.00:0.00/mixed_ref=1/me_range=16/chroma_me=1/trellis=1/8x8dct=1/cqm=0/deadzone=21, 11/fast_pskip=1/chroma_qp_offset=-2/threads=12/lookahead_threads=2/sliced_threads=0/nr=0/decimate=1/interlaced=0/bluray_compat=0/constrained_intra=0/bframes=3/b_pyramid=2/b_adapt=1/b_bias=0/direct=1/weightb=1/open_gop=0/weightp=2/keyint=250/keyint_min=25/scenecut=40/intra_refresh=0/rc_lookahead=40/rc=abr/mbtree=1/bitrate=2100/ratetol=1.0/qcomp=0.60/qpmin=0/qpmax=69/qpstep=4/ip_ratio=1.40/aq=1:1.00
    Default : Да
    Forced : Нет
    Аудио
    Идентификатор : 2
    Формат : AAC
    Формат/Информация : Advanced Audio Codec
    Профиль формата : LC
    Идентификатор кодека : A_AAC
    Продолжительность : 1 ч. 41 м.
    Битрейт : 128 Кбит/сек
    Каналы : 2 канала
    Расположение каналов : Front: L R
    Частота : 44, 1 КГц
    Частота кадров : 43, 066 кадра/сек (1024 SPF)
    Метод сжатия : С потерями
    Задержка видео : 10 мс.
    Размер потока : 93, 3 Мбайт (6%)
    Язык : Russian
    Default : Да
    Forced : Нет

    Скриншоты для ознакомления



    Все одноименные релизы в Клубе
    Время раздачи: 24/7 (около 1 месяца)

    Баскетбол. Единая Лига ВТБ 2017-2018. Енисей (Россия) – ЦСКА (Россия) (06.10.2017) WEB-DLRip
    загрузка...
    Рейтинг →
     (голосов: 1, оценка 3/5, голосовать можно 1 раз )

    Другие торренты по теме:

  • Баскетбол. Единая лига ВТБ.Сезон 2015-2016.Финал.1-й матч. ЦСКА(Москва, Россия) - УНИКС(Казань, Россия) (01.06.2016) HDTVRip [H.264 / 720p-LQ]
  • Баскетбол. Единая лига ВТБ.Сезон 2015-2016. Финал.2-й матч. ЦСКА(Москва, Россия) - УНИКС(Казань, Россия) (03.06.2016) HDTVRip [H.264 / 720p-LQ]
  • Баскетбол. Единая лига ВТБ.Сезон 2015-2016. Финал. 3-й матч. УНИКС(Казань)-ЦСКА(Москва) (06.06.2016) HDTVRip [H.264 / 720p-LQ] [hand made 50fps]
  • Баскетбол. Единая лига ВТБ.Сезон 2015-2016.Финал.4-й матч. УНИКС(Казань)-ЦСКА(Москва) (08.06.2016) HDTVRip [H.264 / 720p-LQ] [hand made 50fps]
  • Баскетбол. Единая Лига ВТБ 2016-2017. Регулярный чемпионат. Астана (Астана, Казахстан) - Автодор (Саратов, Россия) (02.10.2016) SATRip
  • Баскетбол. Единая Лига ВТБ 2016-2017. Регулярный чемпионат. УНИКС (Россия) - Нижний Новгород (Россия) (02.10.2016) HDTVRip [H.264 / 720p-LQ][hand made 50fps]
  • Баскетбол. Единая Лига ВТБ 2016-2017. Регулярный чемпионат. Астана (Казахстан) - УНИКС (Россия) (05.10.2016) WEB-DL [H.264 / 576p-LQ]
  • Баскетбол. Единая Лига ВТБ 2016-2017. Регулярный чемпионат. Зенит (Россия) - Калев (Эстония) (18.10.2016) WEBRip [H.264 / 1080p-LQ]


    • Комментарии (0):

      Информация

      Информация

        Посетители, находящиеся в группе Гости, не могут оставлять комментарии в данной новости.

        ↓ Меню




        ↓ Опрос

        Вы добавили сайт в закладки?
        Да
        Нет


        Top 10 за месяц (Передачи)

        Nat Geo Wild: Дикая Иберия / Wild Iberia [сезон 1 серии 1-4 из 4] (2014) HDTVRip [H.264 / 720p] скачать через торрент бесплатно

        (скачиваний: 6)
        Бренды Советской Эпохи (серии 84 из) (2013-2016) SATRip

        (скачиваний: 5)
        Сергей Тармашев | Что посеешь (2016) [FB2]

        (скачиваний: 5)
        Ольга Гусейнова | Галактика. Принцесса и Генерал (2016) [FB2]

        (скачиваний: 4)
        Короли фанеры (2017.10.07) SATRip (выпуск 4)

        (скачиваний: 4)
        Вести недели (01.10.2017) SATRip

        (скачиваний: 3)
        Международный авиационно-космический салон МАКС-2017 в Жуковском (2017) HDTV [H.264 / 1080p-LQ]

        (скачиваний: 3)
        Алекс Новак, Юрий Трогиянов | Добро с кулаками. Принципы мышления четырехкратного чемпиона мира по кикбоксингу в реальной жизни (2017) [FB2]

        (скачиваний: 3)
        Журнал | Рецепты на бис. Спецвыпуск №1 (19) (2017) [PDF]

        (скачиваний: 3)
        Винсент. Нерассказанная история нашего дяди. Биография Винсента Ван Гога / Vincent - The Untold Story of our Uncle, a biography the life & times of Vincent van Gogh (2012) DVB [H.264] (Серии 1-7 из 7)

        (скачиваний: 3)