.
Авторизация | Регистрация
Хочешь лучшие торренты? Добавь свой email!
Добавить

Торрент скачать бесплатно

» » Вечерний квартал 95 (2017.10.07) WEB-DL [H.264 / 1080p-LQ] (выпуск 101) торрент скачать бесплатно




    Вечерний квартал 95 (2017.10.07) WEB-DL [H.264 / 1080p-LQ] (выпуск 101) торрент скачать бесплатно

    Опубликовал: Админ | Дата: 8-10-2017, 05:00 | Просмотров: 0

    Телекомпания: 1+1
    Производство: Студия 95 квартал, Телеканал Интер
    Жанр: Юмор
    Режиссер: Владимир Зеленский

    Актеры
    Владимир Зеленский, Юрий Крапов, Елена Кравец, Евгений Кошевой, Сергей Казанин, Александр Пикалов, Юрий Корявченков

    Описание

    Ребята из Вечернего квартала продолжают устанавливать свои правила. И ни авторитет звезд шоу-бизнеса, ни статус влиятельных политиков, ни сам президент Украины не могут этому помешать. Здесь правила одни для всех, и квартальщики внимательно следят за тем, чтобы все забавные законы соблюдались. Злостных правонарушителей ребята из Квартала определяют по отсутствию улыбки на лице. Но в сегодня такие вряд ли найдутся, ведь у нас - юмор высшего класса от Вечернего квартала.
    Релиз от: svlesin
    Продолжительность: 01: 02: 12
    Качество видео: WEB-DL
    Субтитры: Отсутствуют
    Видео: AVC, 1920x1080 (16: 9), 25.000 fps, 4 168 Kbps (0.080 bit/pixel)
    Аудио: AC-3, 44.1 KHz, 2 ch, 192 Kbps, CBR
    Код: выделить все
    Общее
    Уникальный идентификатор : 172832464383919067792775518839565571277 (0x82065264E33B836C993864DDC52DD4CD)
    Полное имя : D:\[1]\Вечерний квартал 95\Вечерний квартал 95. Выпуск №101. В Одессе (2017.10.07)_1080.mkv
    Формат : Matroska
    Версия формата : Version 4/Version 2
    Размер файла : 1, 93 Гбайт
    Продолжительность : 1 ч. 2 м.
    Общий поток : 4449 Кбит/сек
    Название фильма : Вечерний квартал 95. Выпуск №101. В Одессе (2017.10.07)_1080
    Дата кодирования : UTC 2017-10-07 20:27:58
    Программа кодирования : mkvmerge v15.0.0 (\\'Duel with the Devil\\') 64-bit
    Библиотека кодирования : libebml v1.3.5 + libmatroska v1.4.5
    DURATION : 01:02:12.933000000
    NUMBER_OF_FRAMES : 107176
    NUMBER_OF_BYTES : 89590386
    _STATISTICS_WRITING_APP : mkvmerge v15.0.0 (\\'Duel with the Devil\\') 64-bit
    _STATISTICS_WRITING_DATE_UTC : 2017-10-07 20:27:58
    _STATISTICS_TAGS : BPS DURATION NUMBER_OF_FRAMES NUMBER_OF_BYTES
    Видео
    Идентификатор : 1
    Формат : AVC
    Формат/Информация : Advanced Video Codec
    Профиль формата : High@L4
    Параметр CABAC формата : Да
    Параметр ReFrames формата : 2 кадра
    Идентификатор кодека : V_MPEG4/ISO/AVC
    Продолжительность : 1 ч. 2 м.
    Битрейт : 4168 Кбит/сек
    Ширина : 1920 пикселей
    Высота : 1080 пикселей
    Соотношение сторон : 16:9
    Режим частоты кадров : Постоянный
    Частота кадров : 25, 000 кадров/сек
    Цветовое пространство : YUV
    Субдискретизация насыщенности : 4:2:0
    Битовая глубина : 8 бит
    Тип развёртки : Прогрессивная
    Бит/(Пиксели*Кадры) : 0.080
    Размер потока : 1, 81 Гбайт (94%)
    Default : Да
    Forced : Нет
    Цветовой диапазон : Limited
    Основные цвета : BT.709
    Характеристики трансфера : BT.709
    Коэффициенты матрицы : BT.709
    Аудио
    Идентификатор : 2
    Формат : AC-3
    Формат/Информация : Audio Coding 3
    Расширение режима : CM (complete main)
    Параметр Endianness формата : Big
    Идентификатор кодека : A_AC3
    Продолжительность : 1 ч. 2 м.
    Вид битрейта : Постоянный
    Битрейт : 192 Кбит/сек
    Каналы : 2 канала
    Расположение каналов : Front: L R
    Частота : 44, 1 КГц
    Битовая глубина : 16 бит
    Метод сжатия : С потерями
    Размер потока : 85, 4 Мбайт (4%)
    Default : Да
    Forced : Нет
    -Единственный Петя, который сделал что-то хорошее
    - О, мама, если б ты знала
    - Платежка за коммуналку в Синагоге
    - Парад подарков для Джамалы от звезд шоу-бизнеса
    - Губы Кремля - отменный концерт Светланы Лободы
    - Малобюджетный клип Тины Кароль
    - Вали в Сомали - Дмитрий Комаров после очередной командировки
    - Свобода в обществе - Валерий Жидков (Тамбовский Волк)

    Скриншоты для ознакомления



    Все одноименные релизы в Клубе
    Время раздачи: 24/7. До первых 5 скачавших.

    Вечерний квартал 95 (2017.10.07) WEB-DL [H.264/1080p-LQ] (выпуск 101)
    загрузка...
    Рейтинг →
     (голосов: 1, оценка 5/5, голосовать можно 1 раз )

    Другие торренты по теме:

  • Вечерний квартал 95. Лучшее (2014.09.20) SATRip
  • Вечерний квартал 95. Лучшее (2014.09.27) SATRip
  • Вечерний квартал 95. Лучшее (2014.10.04) SATRip скачать через торрент бесплатно
  • Вечерний квартал 95. Выпуск №76 (2014.10.11) DVB
  • Вечерний квартал 95. Выпуск №76 (2014.10.11) SATRip
  • Вечерний квартал 95. Выпуск №77 (2014.10.18) DVB скачать через торрент бесплатно
  • Вечерний квартал 95. Выпуск №77 (2014.10.18) SATRip скачать через торрент бесплатно
  • Вечерний квартал 95. Выпуск №78 (2014.10.25) DVB скачать через торрент бесплатно


    • Комментарии (0):

      Информация

      Информация

        Посетители, находящиеся в группе Гости, не могут оставлять комментарии в данной новости.

        ↓ Меню




        ↓ Опрос

        Вы добавили сайт в закладки?
        Да
        Нет


        Top 10 за месяц (Передачи)

        Nat Geo Wild: Дикая Иберия / Wild Iberia [сезон 1 серии 1-4 из 4] (2014) HDTVRip [H.264 / 720p] скачать через торрент бесплатно

        (скачиваний: 6)
        Бренды Советской Эпохи (серии 84 из) (2013-2016) SATRip

        (скачиваний: 5)
        Сергей Тармашев | Что посеешь (2016) [FB2]

        (скачиваний: 5)
        Ольга Гусейнова | Галактика. Принцесса и Генерал (2016) [FB2]

        (скачиваний: 4)
        Короли фанеры (2017.10.07) SATRip (выпуск 4)

        (скачиваний: 4)
        Вести недели (01.10.2017) SATRip

        (скачиваний: 3)
        Международный авиационно-космический салон МАКС-2017 в Жуковском (2017) HDTV [H.264 / 1080p-LQ]

        (скачиваний: 3)
        Алекс Новак, Юрий Трогиянов | Добро с кулаками. Принципы мышления четырехкратного чемпиона мира по кикбоксингу в реальной жизни (2017) [FB2]

        (скачиваний: 3)
        Журнал | Рецепты на бис. Спецвыпуск №1 (19) (2017) [PDF]

        (скачиваний: 3)
        Винсент. Нерассказанная история нашего дяди. Биография Винсента Ван Гога / Vincent - The Untold Story of our Uncle, a biography the life & times of Vincent van Gogh (2012) DVB [H.264] (Серии 1-7 из 7)

        (скачиваний: 3)