.
Авторизация | Регистрация
Хочешь лучшие торренты? Добавь свой email!
Добавить

Торрент скачать бесплатно

» » Вечерний квартал 95 (2017.10.07) WEB-DLRip (выпуск 101) торрент скачать бесплатно




    Вечерний квартал 95 (2017.10.07) WEB-DLRip (выпуск 101) торрент скачать бесплатно

    Опубликовал: Админ | Дата: 8-10-2017, 05:00 | Просмотров: 0

    Телекомпания: 1+1
    Производство: Студия 95 квартал, Телеканал Интер
    Жанр: Юмор
    Режиссер: Владимир Зеленский

    Актеры
    Владимир Зеленский, Юрий Крапов, Елена Кравец, Евгений Кошевой, Сергей Казанин, Александр Пикалов, Юрий Корявченков

    Описание

    Ребята из Вечернего квартала продолжают устанавливать свои правила. И ни авторитет звезд шоу-бизнеса, ни статус влиятельных политиков, ни сам президент Украины не могут этому помешать. Здесь правила одни для всех, и квартальщики внимательно следят за тем, чтобы все забавные законы соблюдались. Злостных правонарушителей ребята из Квартала определяют по отсутствию улыбки на лице. Но в сегодня такие вряд ли найдутся, ведь у нас - юмор высшего класса от Вечернего квартала.
    Релиз от: svlesin
    Продолжительность: 01: 02: 12
    Качество видео: WEB-DLRip
    Субтитры: Отсутствуют
    Видео: MPEG4, XviD, 720x400 (16: 9), 25.000 fps, 1 800 Kbps (0.250 bit/pixel)
    Аудио: AC-3, 44.1 KHz, 2 ch, 192 Kbps, CBR
    Код: выделить все
    Общее
    Полное имя : D:\[1]\Вечерний квартал 95\Вечерний квартал 95. Выпуск №101. В Одессе (2017.10.07)_WEB-DLRip.avi
    Формат : AVI
    Формат/Информация : Audio Video Interleave
    Размер файла : 889 Мбайт
    Продолжительность : 1 ч. 2 м.
    Общий поток : 1998 Кбит/сек
    Название фильма : Vecherniy kvartal.101 (2017.10.07)_nnm-club.name
    Программа кодирования : VirtualDubModRus 1.5.10.2 (build 2542/release)
    Библиотека кодирования : VirtualDubMod build 2542/release
    Видео
    Идентификатор : 0
    Формат : MPEG-4 Visual
    Профиль формата : Advanced Simple@L5
    Параметр BVOP формата : 1
    Параметр QPel формата : Нет
    Параметр GMC формата : Без точки перехода
    Параметр матрицы формата : Default (H.263)
    Идентификатор кодека : XVID
    Идентификатор кодека/Подсказка : XviD
    Продолжительность : 1 ч. 2 м.
    Битрейт : 1800 Кбит/сек
    Ширина : 720 пикселей
    Высота : 400 пикселей
    Соотношение сторон : 16:9
    Частота кадров : 25, 000 кадров/сек
    Цветовое пространство : YUV
    Субдискретизация насыщенности : 4:2:0
    Битовая глубина : 8 бит
    Тип развёртки : Прогрессивная
    Метод сжатия : С потерями
    Бит/(Пиксели*Кадры) : 0.250
    Размер потока : 801 Мбайт (90%)
    Библиотека кодирования : XviD 67
    Аудио
    Идентификатор : 1
    Формат : AC-3
    Формат/Информация : Audio Coding 3
    Расширение режима : CM (complete main)
    Параметр Endianness формата : Big
    Идентификатор кодека : 2000
    Продолжительность : 1 ч. 2 м.
    Вид битрейта : Постоянный
    Битрейт : 192 Кбит/сек
    Каналы : 2 канала
    Расположение каналов : Front: L R
    Частота : 44, 1 КГц
    Битовая глубина : 16 бит
    Метод сжатия : С потерями
    Размер потока : 85, 4 Мбайт (10%)
    Выравнивание : Разделение по промежуткам
    Продолжительность промежутка : 160 мс. (4, 00 видеокадра)
    Время предзагрузки промежутка : 640 мс.
    -Единственный Петя, который сделал что-то хорошее
    - О, мама, если б ты знала
    - Платежка за коммуналку в Синагоге
    - Парад подарков для Джамалы от звезд шоу-бизнеса
    - Губы Кремля - отменный концерт Светланы Лободы
    - Малобюджетный клип Тины Кароль
    - Вали в Сомали - Дмитрий Комаров после очередной командировки
    - Свобода в обществе - Валерий Жидков (Тамбовский Волк)

    Скриншоты для ознакомления



    Все одноименные релизы в Клубе
    Время раздачи: 24/7. До первых 5 скачавших.

    Вечерний квартал 95 (2017.10.07) WEB-DLRip (выпуск 101)
    загрузка...
    Рейтинг →
     (голосов: 1, оценка 5/5, голосовать можно 1 раз )

    Другие торренты по теме:

  • Вечерний квартал 95. Лучшее (2014.09.20) SATRip
  • Вечерний квартал 95. Лучшее (2014.09.27) SATRip
  • Вечерний квартал 95. Лучшее (2014.10.04) SATRip скачать через торрент бесплатно
  • Вечерний квартал 95. Выпуск №76 (2014.10.11) DVB
  • Вечерний квартал 95. Выпуск №76 (2014.10.11) SATRip
  • Вечерний квартал 95. Выпуск №77 (2014.10.18) DVB скачать через торрент бесплатно
  • Вечерний квартал 95. Выпуск №77 (2014.10.18) SATRip скачать через торрент бесплатно
  • Вечерний квартал 95. Выпуск №78 (2014.10.25) DVB скачать через торрент бесплатно


    • Комментарии (0):

      Информация

      Информация

        Посетители, находящиеся в группе Гости, не могут оставлять комментарии в данной новости.

        ↓ Меню




        ↓ Опрос

        Вы добавили сайт в закладки?
        Да
        Нет


        Top 10 за месяц (Передачи)