.
Авторизация | Регистрация
Хочешь лучшие торренты? Добавь свой email!
Добавить

Торрент скачать бесплатно

» » NG: 1917: Один год - две революции / 1917: One Year, Two Revolutions (2017) SATRip торрент скачать бесплатно




    NG: 1917: Один год - две революции / 1917: One Year, Two Revolutions (2017) SATRip торрент скачать бесплатно

    Опубликовал: Админ | Дата: 8-10-2017, 05:00 | Просмотров: 0

    Телекомпания: США, National Geographic
    Жанр: Документальный, история
    Режиссер: Бернард Джордж

    Описание

    В период времени между февралем и октябрем 1917 года в российской империи, казавшейся в свое время незыблемой твердыней, произошли сразу две революции. Девять месяцев спонтанного восстания, вызванного усталостью Великой войны. Девять месяцев надежд, свободы и демократических устремлений. Девять месяцев беспорядков и неопределенностей, прежде чем переворот привел к перевороту, который изменил ход истории и глубоко изменил будущее цивилизации.
    Благодаря уникальному архиву, частично окрашенному, этот фильм призывает через призму времени, еще раз пересмотреть и осмыслить этот поворотный момент двадцатого века. Революции 1917 года вернут историческую правду в свете новейшей историографии.
    Релиз от: alf62
    Продолжительность: 00: 43: 59
    Качество видео: SATRip
    Перевод: Дублированный
    Видео: Xvid, 720x400, ~1900 Kbps
    Аудио: AC3, 2 ch, 192 Kbps

    1917.Один.год-две.революции.2017.XviD.SATRip.alf62.avi
    Формат : AVI
    Формат/Информация : Audio Video Interleave
    Размер файла : 661 Мбайт
    Продолжительность : 43 м.
    Общий поток : 2102 Кбит/сек
    Программа кодирования : VirtualDubMod 1.5.10.3 |www.virtualdub-fr.org|| (build 2550/release)
    Библиотека кодирования : VirtualDubMod build 2550/release
    Видео
    Идентификатор : 0
    Формат : MPEG-4 Visual
    Профиль формата : Advanced Simple@L5
    Параметр BVOP формата : 2
    Параметр QPel формата : Нет
    Параметр GMC формата : Без точки перехода
    Параметр матрицы формата : Default (MPEG)
    Идентификатор кодека : XVID
    Идентификатор кодека/Подсказка : XviD
    Продолжительность : 43 м.
    Битрейт : 1900 Кбит/сек
    Ширина : 720 пикселей
    Высота : 400 пикселей
    Соотношение сторон : 16: 9
    Частота кадров : 25, 000 кадров/сек
    Цветовое пространство : YUV
    Субдискретизация насыщенности : 4: 2: 0
    Битовая глубина : 8 бит
    Тип развёртки : Прогрессивная
    Метод сжатия : С потерями
    Бит/(Пиксели*Кадры) : 0.264
    Размер потока : 598 Мбайт (90%)
    Библиотека кодирования : XviD 73
    Аудио
    Идентификатор : 1
    Формат : AC-3
    Формат/Информация : Audio Coding 3
    Расширение режима : CM (complete main)
    Параметр Endianness формата : Big
    Идентификатор кодека : 2000
    Продолжительность : 43 м.
    Вид битрейта : Постоянный
    Битрейт : 192 Кбит/сек
    Каналы : 2 канала
    Расположение каналов : Front: L R
    Частота : 48, 0 КГц
    Битовая глубина : 16 бит
    Метод сжатия : С потерями
    Размер потока : 60, 4 Мбайт (9%)
    Выравнивание : Разделение по промежуткам
    Продолжительность промежутка : 40 мс. (1, 00 видеокадр)
    Время предзагрузки промежутка : 500 мс.

    Скриншоты для ознакомления





    Все одноименные релизы в Клубе
    Время раздачи: до появления первых 3-5 скачавших

    NG: 1917: Один год - две революции/1917: One Year, Two Revolutions (2017) SATRip
    загрузка...
    Рейтинг →
     (голосов: 1, оценка 3/5, голосовать можно 1 раз )

    Другие торренты по теме:

  • Один в один. Сезон №3. Выпуск №1 (2015.02.08) HDTV [H.264 / 1080i] скачать через торрент бесплатно
  • Один в один. Сезон №3. Выпуск №1 (2015.02.08) SATRip скачать через торрент бесплатно
  • Один в один. Сезон №3. Выпуск №2 (2015.02.15) SATRip
  • Один в один. Сезон №3. Выпуск №3 (2015.02.22) SATRip скачать через торрент бесплатно
  • Один в один. Сезон №3. Выпуск №11 (2015.04.19) SATRip скачать через торрент бесплатно
  • Один в один. Сезон №3. Выпуск №12 (2015.04.26) SATRip скачать через торрент бесплатно
  • Один в один. Сезон №3. Выпуск №13 (2015.05.10) SATRip скачать через торрент бесплатно
  • Один в один. Сезон №3. Выпуск №14 (2015.05.17) SATRip скачать через торрент бесплатно


    • Комментарии (0):

      Информация

      Информация

        Посетители, находящиеся в группе Гости, не могут оставлять комментарии в данной новости.

        ↓ Меню




        ↓ Опрос

        Вы добавили сайт в закладки?
        Да
        Нет


        Top 10 за месяц (Передачи)

        Nat Geo Wild: Дикая Иберия / Wild Iberia [сезон 1 серии 1-4 из 4] (2014) HDTVRip [H.264 / 720p] скачать через торрент бесплатно

        (скачиваний: 6)
        Бренды Советской Эпохи (серии 84 из) (2013-2016) SATRip

        (скачиваний: 5)
        Сергей Тармашев | Что посеешь (2016) [FB2]

        (скачиваний: 5)
        Ольга Гусейнова | Галактика. Принцесса и Генерал (2016) [FB2]

        (скачиваний: 4)
        Короли фанеры (2017.10.07) SATRip (выпуск 4)

        (скачиваний: 4)
        Вести недели (01.10.2017) SATRip

        (скачиваний: 3)
        Международный авиационно-космический салон МАКС-2017 в Жуковском (2017) HDTV [H.264 / 1080p-LQ]

        (скачиваний: 3)
        Алекс Новак, Юрий Трогиянов | Добро с кулаками. Принципы мышления четырехкратного чемпиона мира по кикбоксингу в реальной жизни (2017) [FB2]

        (скачиваний: 3)
        Журнал | Рецепты на бис. Спецвыпуск №1 (19) (2017) [PDF]

        (скачиваний: 3)
        Винсент. Нерассказанная история нашего дяди. Биография Винсента Ван Гога / Vincent - The Untold Story of our Uncle, a biography the life & times of Vincent van Gogh (2012) DVB [H.264] (Серии 1-7 из 7)

        (скачиваний: 3)