.
Авторизация | Регистрация
Хочешь лучшие торренты? Добавь свой email!
Добавить

Торрент скачать бесплатно

» » Беседа с Евгением Федоровым (05.10.2017) WEBRip [H.264 / 1080p-LQ] торрент скачать бесплатно




    Беседа с Евгением Федоровым (05.10.2017) WEBRip [H.264 / 1080p-LQ] торрент скачать бесплатно

    Опубликовал: Админ | Дата: 8-10-2017, 05:00 | Просмотров: 0

    Производство: Телевидение Национально-Освободительного Движения
    Жанр: Политика
    Участники: Мария Максимова, Роман Зыков, Евгений Федоров

    Описание

    Активисты Национально-Освободительного Движения встретились с Депутатом Государственной Думы России, координатором НОД Евгением Федоровым. Темы беседы: для чего ведут разговоры об отмене санкций, США поддерживают ИГИЛ, как работает двоевластие, власти США хотят запретить телеканал RT America, как работают СМИ в России...
    Продолжительность: 00: 39: 25
    Качество видео: WEBRip
    Видео: AVC/H.264, 1920x1080 (16: 9), ~1857 Kbps
    Аудио: AAC, 2 ch, 126 Kbps

    General
    Unique ID : 196951382791227293743823600932786872731 (0x942B74E1CFBD39F296BA1C6A06CD219B)
    Complete name : D: \Film\Беседа с Евгением Федоровым 05.10.17.mkv
    Format : Matroska
    Format version : Version 4/Version 2
    File size : 560 MiB
    Duration : 39 min 25 s
    Overall bit rate : 1 987 kb/s
    Encoded date : UTC 2017-10-06 17: 38: 18
    Writing application : mkvmerge v16.0.0 (\\'Protest\\') 64-bit
    Writing library : libebml v1.3.5 + libmatroska v1.4.8
    Cover : Yes
    Attachments : cover.png
    Video
    ID : 1
    Format : AVC
    Format/Info : Advanced Video Codec
    Format profile : High@L4
    Format settings : CABAC/2 Ref Frames
    Format settings, CABAC : Yes
    Format settings, RefFrames : 2 frames
    Codec ID : V_MPEG4/ISO/AVC
    Duration : 39 min 25 s
    Bit rate : 1 857 kb/s
    Width : 1 920 pixels
    Height : 1 080 pixels
    Display aspect ratio : 16: 9
    Frame rate mode : Constant
    Frame rate : 29.970 (30000/1001) FPS
    Color space : YUV
    Chroma subsampling : 4: 2: 0
    Bit depth : 8 bits
    Scan type : Progressive
    Bits/(Pixel*Frame) : 0.030
    Stream size : 524 MiB (93%)
    Language : Russian
    Default : Yes
    Forced : No
    Color range : Limited
    Color primaries : BT.709
    Transfer characteristics : BT.709
    Matrix coefficients : BT.709
    Audio
    ID : 2
    Format : AAC
    Format/Info : Advanced Audio Codec
    Format profile : LC
    Codec ID : A_AAC-2
    Duration : 39 min 25 s
    Bit rate : 126 kb/s
    Channel(s) : 2 channels
    Channel positions : Front: L R
    Sampling rate : 44.1 kHz
    Frame rate : 43.066 FPS (1024 SPF)
    Compression mode : Lossy
    Stream size : 35.4 MiB (6%)
    Language : Russian
    Default : Yes
    Forced : No

    Скриншоты для ознакомления



    Все одноименные релизы в Клубе
    Время раздачи: 07: 00-23: 00 (до появления первых 3-5 скачавших)

    Беседа с Евгением Федоровым (05.10.2017) WEBRip [H.264/1080p-LQ]
    загрузка...
    Рейтинг →
     (голосов: 1, оценка 5/5, голосовать можно 1 раз )

    Другие торренты по теме:

  • Беседа с Евгением Федоровым (29.07.2017) WEBRip [H.264 / 720p-LQ]
  • Беседа с Евгением Федоровым (06.09.2017) WEBRip [H.264 / 1080p-LQ]
  • Беседа с Евгением Федоровым (05.09.2017) WEBRip [H.264 / 720p-LQ]
  • Беседа с Евгением Федоровым. Банковский кризис в России (13.09.2017) WEBRip [H.264 / 720p-LQ]
  • Беседа с Евгением Федоровым (18.09.2017) WEBRip [H.264 / 720p-LQ]
  • Беседа с Евгением Федоровым (20.09.2017) WEBRip [H.264 / 720p-LQ]
  • Беседа с Евгением Федоровым (22.09.2017) WEBRip [H.264 / 720p-LQ]
  • Беседа с Евгением Федоровым. Политика ЦБ (26.09.2017) WEBRip [H.264 / 1080p-LQ]


    • Комментарии (0):

      Информация

      Информация

        Посетители, находящиеся в группе Гости, не могут оставлять комментарии в данной новости.

        ↓ Меню




        ↓ Опрос

        Вы добавили сайт в закладки?
        Да
        Нет


        Top 10 за месяц (Передачи)