.
Авторизация | Регистрация
Хочешь лучшие торренты? Добавь свой email!
Добавить

Торрент скачать бесплатно

» » Научное расследование Сергея Малозёмова. Еда живая и мертвая (2017.10.07) SATRip торрент скачать бесплатно




    Научное расследование Сергея Малозёмова. Еда живая и мертвая (2017.10.07) SATRip торрент скачать бесплатно

    Опубликовал: Админ | Дата: 8-10-2017, 05:00 | Просмотров: 0

    Производство: НТВ
    Жанр: Документальный
    Ведущие: Сергей Малозёмов

    Описание

    Еда живая и мертвая – новый научно-популярный цикл Сергея Малозёмова, репортера с медицинским образованием, автора и ведущего программы Чудо техники и научных расследований о климате, технологиях, бессмертии и экологии.
    Релиз от: -=FOX=-
    Продолжительность: 00: 42: 11
    Качество видео: SATRip
    Субтитры: Отсутствуют
    Видео: MPEG4, XviD, 720x448 (1.607), 25.000 fps, 1 800 Kbps (0.223 bit/pixel)
    Аудио: MP3, 48.0 KHz, 2 ch, 128 Kbps, CBR
    Код: выделить все
    Общее
    Полное имя : D:\[1]\Еда живая и мертвая\Еда живая и мертвая (2017.10.07).avi
    Формат : AVI
    Формат/Информация : Audio Video Interleave
    Размер файла : 585 Мбайт
    Продолжительность : 42 м.
    Общий поток : 1938 Кбит/сек
    Программа кодирования : VirtualDubMod 1.5.10.3 |www.virtualdub-fr.org|| (build 2550/release)
    Библиотека кодирования : VirtualDubMod build 2550/release
    Видео
    Идентификатор : 0
    Формат : MPEG-4 Visual
    Профиль формата : Advanced Simple@L5
    Параметр BVOP формата : 2
    Параметр QPel формата : Нет
    Параметр GMC формата : Без точки перехода
    Параметр матрицы формата : Default (MPEG)
    Идентификатор кодека : XVID
    Идентификатор кодека/Подсказка : XviD
    Продолжительность : 42 м.
    Битрейт : 1800 Кбит/сек
    Ширина : 720 пикселей
    Высота : 448 пикселей
    Соотношение сторон : 16:10
    Частота кадров : 25, 000 кадров/сек
    Цветовое пространство : YUV
    Субдискретизация насыщенности : 4:2:0
    Битовая глубина : 8 бит
    Тип развёртки : Прогрессивная
    Метод сжатия : С потерями
    Бит/(Пиксели*Кадры) : 0.223
    Размер потока : 543 Мбайт (93%)
    Библиотека кодирования : XviD 73
    Аудио
    Идентификатор : 1
    Формат : MPEG Audio
    Версия формата : Version 1
    Профиль формата : Layer 3
    Идентификатор кодека : 55
    Идентификатор кодека/Подсказка : MP3
    Продолжительность : 42 м.
    Вид битрейта : Постоянный
    Битрейт : 128 Кбит/сек
    Каналы : 2 канала
    Частота : 48, 0 КГц
    Метод сжатия : С потерями
    Размер потока : 38, 6 Мбайт (7%)
    Выравнивание : Соединение по промежуткам
    Продолжительность промежутка : 40 мс. (1, 00 видеокадр)
    Время предзагрузки промежутка : 504 мс.
    Библиотека кодирования : LAME3.99r
    Настройки программы : -m s -V 4 -q 2 -lowpass 17 -b 128
    Правда ли, что в Россию везут опасный китайский мед? Пестициды и антибиотики в нашем отечественном - миф или правда? Много ли фальсификата в магазинах? Какой сорт - самый полезный? И действительно ли мед можно считать лекарством? Чтобы разобраться во всех вопросах, Сергей Малоземов отправился в нашу главную медовую вотчину - в Башкирию. А также прошел по пчелиной тропе в Англии и узнал, как в Европе спасают пчел, которые оказались на грани исчезновения. Спецвыпуск программы Еда живая и мертвая - все о меде.

    Скриншоты для ознакомления



    Все одноименные релизы в Клубе
    Время раздачи: 24/7. До первых 5 скачавших.

    Научное расследование Сергея Малозёмова. Еда живая и мертвая (2017.10.07) SATRip
    загрузка...
    Рейтинг →
     (голосов: 1, оценка 4/5, голосовать можно 1 раз )

    Другие торренты по теме:

  • Научное расследование Сергея Малозёмова. Еда живая и мертвая (2017.10.21) SATRip
  • Научное расследование Сергея Малозёмова: ГМО. Еда раздора (2014.12.06) SATRip скачать через торрент бесплатно
  • Научное расследование Сергея Малозёмова: Ген пьянства (2014.12.13) SATRip
  • Научное расследование Сергея Малозёмова: Соль и сахар. Смерть по вкусу (2014.12.20) SATRip скачать через торрент бесплатно
  • Научное расследование Сергея Малозёмова: Технология бессмертия (2014.12.27) SATRip
  • Научное расследование Сергея Малозёмова: Холод (2013) SATRip
  • Научное расследование Сергея Малозёмова: Город-убийца (2014) SATRip
  • Научное расследование Сергея Малозёмова. Еда живая и мертвая: Рыба (2015.11.07) SATRip скачать через торрент бесплатно


    • Комментарии (0):

      Информация

      Информация

        Посетители, находящиеся в группе Гости, не могут оставлять комментарии в данной новости.

        ↓ Меню




        ↓ Опрос

        Вы добавили сайт в закладки?
        Да
        Нет


        Top 10 за месяц (Передачи)

        Nat Geo Wild: Дикая Иберия / Wild Iberia [сезон 1 серии 1-4 из 4] (2014) HDTVRip [H.264 / 720p] скачать через торрент бесплатно

        (скачиваний: 6)
        Бренды Советской Эпохи (серии 84 из) (2013-2016) SATRip

        (скачиваний: 5)
        Сергей Тармашев | Что посеешь (2016) [FB2]

        (скачиваний: 5)
        Ольга Гусейнова | Галактика. Принцесса и Генерал (2016) [FB2]

        (скачиваний: 4)
        Короли фанеры (2017.10.07) SATRip (выпуск 4)

        (скачиваний: 4)
        Вести недели (01.10.2017) SATRip

        (скачиваний: 3)
        Международный авиационно-космический салон МАКС-2017 в Жуковском (2017) HDTV [H.264 / 1080p-LQ]

        (скачиваний: 3)
        Алекс Новак, Юрий Трогиянов | Добро с кулаками. Принципы мышления четырехкратного чемпиона мира по кикбоксингу в реальной жизни (2017) [FB2]

        (скачиваний: 3)
        Журнал | Рецепты на бис. Спецвыпуск №1 (19) (2017) [PDF]

        (скачиваний: 3)
        Винсент. Нерассказанная история нашего дяди. Биография Винсента Ван Гога / Vincent - The Untold Story of our Uncle, a biography the life & times of Vincent van Gogh (2012) DVB [H.264] (Серии 1-7 из 7)

        (скачиваний: 3)