.
Авторизация | Регистрация
Хочешь лучшие торренты? Добавь свой email!
Добавить

Торрент скачать бесплатно

» » Слова, что создали Америку / The Words That Built America (2017) HDTV [H.264 / 1080i-LQ] торрент скачать бесплатно




    Слова, что создали Америку / The Words That Built America (2017) HDTV [H.264 / 1080i-LQ] торрент скачать бесплатно

    Опубликовал: Админ | Дата: 8-10-2017, 05:00 | Просмотров: 0

    Телекомпания: США/HBO Documentary Films
    Жанр: Документальный, История
    Участники: Режиссёр: Александра Пелоси

    Описание

    The Words That Built America - это беспрерывное чтение оригинальных слов Американских отцов-основателей. Режиссер-продюсер Александра Пелоси собрала более 100 читателей, включая всех живущих президентов и вице-президентов, а также судей Верховного суда, секретарей кабинета министров и лидеров Сената и Палаты представителей, а также множество знаменитостей, ведущих СМИ и молодых людей, чтобы прочитать важнейшие документы Америки.

    Продолжительность: 00: 46: 07
    Качество видео: HDTV 1080i
    Перевод: Двуголосый закадровый, профессиональный
    Субтитры: Русские (Teletext, Sub 888)
    Видео: AVC/H.264, 1920х1080, ~6794 kbps
    Аудио #1: MP2, 2 ch, 48, 0 kHz, 192 kbps | Русский DVO
    Аудио #2: MP2, 2 ch, 48, 0 kHz, 192 kbps | Eng (оригинал)
    Аудио #3: АС3, 6 ch, 48, 0 kHz, 384 kbps | Русский DVO

    Общее
    Идентификатор : 16 (0x10)
    Полное имя : The Words That Built America_HD.ts
    Формат : MPEG-TS
    Размер файла : 2, 57 Гбайт
    Продолжительность : 46 м. 7 с.
    Режим общего битрейта : Переменный
    Общий поток : 7963 Кбит/сек
    Видео
    Идентификатор : 1812 (0x714)
    Идентификатор меню : 812 (0x32C)
    Формат : AVC
    Формат/Информация : Advanced Video Codec
    Профиль формата : High@L4
    Настройки формата : CABAC/4 Ref Frames
    Параметр CABAC формата : Да
    Параметр RefFrames формата : 4 кадра
    Идентификатор кодека : 27
    Продолжительность : 46 м. 7 с.
    Битрейт : 6794 Кбит/сек
    Ширина : 1920 пикселей
    Высота : 1080 пикселей
    Соотношение сторон : 16: 9
    Частота кадров : 25, 000 кадров/сек
    Стандарт вещания : PAL
    Цветовое пространство : YUV
    Субдискретизация насыщенности : 4: 2: 0
    Битовая глубина : 8 бит
    Тип развёртки : MBAFF
    Метод сохранения типа развёртки : Чередующиеся поля
    Порядок развёртки : Верхнее поле первое
    Бит/(Пиксели*Кадры) : 0.131
    Размер потока : 2, 19 Гбайт (85%)
    Цветовой диапазон : Limited
    Основные цвета : BT.709
    Характеристики трансфера : BT.709
    Коэффициенты матрицы : BT.709
    Аудио #1
    Идентификатор : 2812 (0xAFC)
    Идентификатор меню : 812 (0x32C)
    Формат : MPEG Audio
    Версия формата : Version 1
    Профиль формата : Layer 2
    Настройки формата : Joint stereo/Intensity Stereo + MS Stereo
    Режим : Joint stereo
    Расширение режима : Intensity Stereo + MS Stereo
    Идентификатор кодека : 4
    Продолжительность : 46 м. 6 с.
    Вид битрейта : Постоянный
    Битрейт : 192 Кбит/сек
    Каналы : 2 канала
    Частота : 48, 0 КГц
    Метод сжатия : С потерями
    Задержка видео : 250 мс.
    Размер потока : 63, 3 Мбайт (2%)
    Язык : std
    Язык, дополнительно : Clean effects
    Аудио #2
    Идентификатор : 3812 (0xEE4)
    Идентификатор меню : 812 (0x32C)
    Формат : MPEG Audio
    Версия формата : Version 1
    Профиль формата : Layer 2
    Настройки формата : Joint stereo/Intensity Stereo + MS Stereo
    Режим : Joint stereo
    Расширение режима : Intensity Stereo + MS Stereo
    Идентификатор кодека : 4
    Продолжительность : 46 м. 6 с.
    Вид битрейта : Постоянный
    Битрейт : 192 Кбит/сек
    Каналы : 2 канала
    Частота : 48, 0 КГц
    Метод сжатия : С потерями
    Задержка видео : 250 мс.
    Размер потока : 63, 3 Мбайт (2%)
    Язык : std
    Язык, дополнительно : Clean effects
    Аудио #3
    Идентификатор : 4812 (0x12CC)
    Идентификатор меню : 812 (0x32C)
    Формат : AC-3
    Формат/Информация : Audio Coding 3
    Параметр Endianness формата : Big
    Идентификатор кодека : 6
    Продолжительность : 46 м. 6 с.
    Вид битрейта : Постоянный
    Битрейт : 384 Кбит/сек
    Каналы : 6 каналов
    Расположение каналов : Front: L C R, Side: L R, LFE
    Частота : 48, 0 КГц
    Частота кадров : 31, 250 кадров/сек (1536 SPF)
    Битовая глубина : 16 бит
    Метод сжатия : С потерями
    Задержка видео : 144 мс.
    Размер потока : 127 Мбайт (5%)
    Язык : std
    Язык, дополнительно : Clean effects
    ServiceKind/String : Complete Main
    Прочее #1
    Идентификатор : 63 (0x3F)-100
    Идентификатор меню : 812 (0x32C)
    Формат : Teletext
    Прочее #2
    Идентификатор : 63 (0x3F)-888
    Идентификатор меню : 812 (0x32C)
    Формат : Teletext
    Язык, дополнительно : Additional information page

    Скриншоты для ознакомления



    Все одноименные релизы в Клубе
    Время раздачи: Пн-Пт с 18: 00 до 22: 00 (до появления первых 3-5 скачавших)

    Слова, что создали Америку/The Words That Built America (2017) HDTV [H.264/1080i-LQ]
    загрузка...
    Рейтинг →
     (голосов: 1, оценка 5/5, голосовать можно 1 раз )

    Другие торренты по теме:

  • Плохие слова / Bad Words (2013) HDRip [Line]
  • Плохие слова / Bad Words (2013) BDRip [720p] [Line]
  • Плохие слова / Bad Words (2013) BDRip [1080p] [Line]
  • Не говори ни слова / Dont Say a Word (2001) BDRemux [1080p]
  • Плохие слова / Bad Words (2013) HDRip
  • Плохие слова / Bad Words (2013) BDRip [1080p] скачать через торрент бесплатно
  • Плохие слова / Bad Words (2013) BDRip [H.264] скачать через торрент бесплатно
  • Плохие слова / Bad Words (2013) BDRemux [1080p] скачать через торрент бесплатно


    • Комментарии (0):

      Информация

      Информация

        Посетители, находящиеся в группе Гости, не могут оставлять комментарии в данной новости.

        ↓ Меню




        ↓ Опрос

        Вы добавили сайт в закладки?
        Да
        Нет


        Top 10 за месяц (Передачи)

        Nat Geo Wild: Дикая Иберия / Wild Iberia [сезон 1 серии 1-4 из 4] (2014) HDTVRip [H.264 / 720p] скачать через торрент бесплатно

        (скачиваний: 6)
        Бренды Советской Эпохи (серии 84 из) (2013-2016) SATRip

        (скачиваний: 5)
        Сергей Тармашев | Что посеешь (2016) [FB2]

        (скачиваний: 5)
        Ольга Гусейнова | Галактика. Принцесса и Генерал (2016) [FB2]

        (скачиваний: 4)
        Короли фанеры (2017.10.07) SATRip (выпуск 4)

        (скачиваний: 4)
        Вести недели (01.10.2017) SATRip

        (скачиваний: 3)
        Международный авиационно-космический салон МАКС-2017 в Жуковском (2017) HDTV [H.264 / 1080p-LQ]

        (скачиваний: 3)
        Алекс Новак, Юрий Трогиянов | Добро с кулаками. Принципы мышления четырехкратного чемпиона мира по кикбоксингу в реальной жизни (2017) [FB2]

        (скачиваний: 3)
        Журнал | Рецепты на бис. Спецвыпуск №1 (19) (2017) [PDF]

        (скачиваний: 3)
        Винсент. Нерассказанная история нашего дяди. Биография Винсента Ван Гога / Vincent - The Untold Story of our Uncle, a biography the life & times of Vincent van Gogh (2012) DVB [H.264] (Серии 1-7 из 7)

        (скачиваний: 3)