.
Авторизация | Регистрация
Хочешь лучшие торренты? Добавь свой email!
Добавить

Торрент скачать бесплатно

» » Битва экстрасенсов (2017.10.07) SATRip (сезон 18, выпуск 3) торрент скачать бесплатно




    Битва экстрасенсов (2017.10.07) SATRip (сезон 18, выпуск 3) торрент скачать бесплатно

    Опубликовал: Админ | Дата: 8-10-2017, 05:00 | Просмотров: 0

    Телекомпания: ТНТ
    Жанр: Реалити Шоу
    Ведущий: Марат Башаров

    Описание

    С 23 сентября на ТНТ стартует долгожданный 18-й сезон любимого сериала Битвы экстрасенсов — самого мистического, непредсказуемого и загадочного проекта российского ТВ. Масштабный кастинг, новые яркие участники и высокие технологии в мире экстрасенсорики. Новый сезон любимого сериала обещает стать самым необычным и удивительным в истории шоу. Мне бы очень хотелось, чтобы в новом сезон любимого сериалае экстрасенсы поменьше обращали бы внимание на свою самореализацию, а больше помогали людям. Ведь каждый сезон любимого сериала к нам обращаются те, кто действительно ждет помощи. И это, по-моему, для людей со сверхспособностями должно быть приоритетным!, — Марат Башаров, ведущий проекта.
    Продолжительность: ~ 01: 12: 25
    Качество видео: SATRip
    Субтитры: Отсутствуют
    Реклама: Присутствуют вставки текстовой рекламы
    Видео: MPEG4, XviD, 720x400 (16: 9), 25.000 fps, 1 800 Kbps (0.250 bit/pixel)
    Аудио: MP3, 48.0 KHz, 2 ch, 128 Kbps, CBR
    Код: выделить все
    Общее
    Полное имя : D:\Битва экстрасенсов. Сезон 18. Выпуск 03 (2017.10.07).avi
    Формат : AVI
    Формат/Информация : Audio Video Interleave
    Размер файла : 1006 Мбайт
    Продолжительность : 1 ч. 12 м.
    Общий поток : 1941 Кбит/сек
    Видео
    Идентификатор : 0
    Формат : MPEG-4 Visual
    Профиль формата : Advanced Simple@L5
    Параметр BVOP формата : 2
    Параметр QPel формата : Нет
    Параметр GMC формата : Без точки перехода
    Параметр матрицы формата : Default (H.263)
    Идентификатор кодека : XVID
    Идентификатор кодека/Подсказка : XviD
    Продолжительность : 1 ч. 12 м.
    Битрейт : 1800 Кбит/сек
    Ширина : 720 пикселей
    Высота : 400 пикселей
    Соотношение сторон : 16:9
    Частота кадров : 25, 000 кадров/сек
    Цветовое пространство : YUV
    Субдискретизация насыщенности : 4:2:0
    Битовая глубина : 8 бит
    Тип развёртки : Прогрессивная
    Метод сжатия : С потерями
    Бит/(Пиксели*Кадры) : 0.250
    Размер потока : 932 Мбайт (93%)
    Библиотека кодирования : XviD 1.2.1 (UTC 2008-12-04)
    Аудио
    Идентификатор : 1
    Формат : MPEG Audio
    Версия формата : Version 1
    Профиль формата : Layer 3
    Режим : Joint stereo
    Расширение режима : MS Stereo
    Идентификатор кодека : 55
    Идентификатор кодека/Подсказка : MP3
    Продолжительность : 1 ч. 12 м.
    Вид битрейта : Постоянный
    Битрейт : 128 Кбит/сек
    Каналы : 2 канала
    Частота : 48, 0 КГц
    Метод сжатия : С потерями
    Размер потока : 66, 3 Мбайт (7%)
    Выравнивание : Соединение по промежуткам
    Продолжительность промежутка : 24 мс. (0, 60 видеокадр)
    Библиотека кодирования : LAME3.99r
    Настройки программы : -m j -V 4 -q 9 -lowpass 17 -b 128

    Скриншоты для ознакомления



    Все одноименные релизы в Клубе
    Время раздачи: 24/7. До первых 5 скачавших.

    Битва экстрасенсов (2017.10.07) SATRip (сезон 18, выпуск 3)
    загрузка...
    Рейтинг →
     (голосов: 1, оценка 3/5, голосовать можно 1 раз )

    Другие торренты по теме:

  • Битва экстрасенсов (2017.10.21) WEB-DL [H.264 / 720p-LQ] (сезон 18, выпуск 5)
  • Битва экстрасенсов (2017.10.21) SATRip (сезон 18, выпуск 5)
  • Битва экстрасенсов. Украина (сезон 14, выпуск 1) / Битва екстрасенсів (2014) SATRip [RUS / UKR] скачать через торрент бесплатно
  • Битва экстрасенсов. Украина (сезон 14, выпуск 1-3 из 13) / Битва екстрасенсів (2014) SATRip [UKR / RUS] [обновляемая]
  • Битва экстрасенсов. Сезон №15. Выпуск №2 (2014) SATRip
  • Битва экстрасенсов. Сезон №15. Выпуск №2 (2014) WEB-DL [H.264 / 720p]
  • Битва экстрасенсов. Сезон №15. Выпуск №3 (2014) SATRip скачать через торрент бесплатно
  • Битва экстрасенсов. Сезон №15. Выпуск №4 (2014) WEB-DLRip скачать через торрент бесплатно


    • Комментарии (0):

      Информация

      Информация

        Посетители, находящиеся в группе Гости, не могут оставлять комментарии в данной новости.

        ↓ Меню




        ↓ Опрос

        Вы добавили сайт в закладки?
        Да
        Нет


        Top 10 за месяц (Передачи)

        Nat Geo Wild: Дикая Иберия / Wild Iberia [сезон 1 серии 1-4 из 4] (2014) HDTVRip [H.264 / 720p] скачать через торрент бесплатно

        (скачиваний: 6)
        Бренды Советской Эпохи (серии 84 из) (2013-2016) SATRip

        (скачиваний: 5)
        Сергей Тармашев | Что посеешь (2016) [FB2]

        (скачиваний: 5)
        Ольга Гусейнова | Галактика. Принцесса и Генерал (2016) [FB2]

        (скачиваний: 4)
        Короли фанеры (2017.10.07) SATRip (выпуск 4)

        (скачиваний: 4)
        Вести недели (01.10.2017) SATRip

        (скачиваний: 3)
        Международный авиационно-космический салон МАКС-2017 в Жуковском (2017) HDTV [H.264 / 1080p-LQ]

        (скачиваний: 3)
        Алекс Новак, Юрий Трогиянов | Добро с кулаками. Принципы мышления четырехкратного чемпиона мира по кикбоксингу в реальной жизни (2017) [FB2]

        (скачиваний: 3)
        Журнал | Рецепты на бис. Спецвыпуск №1 (19) (2017) [PDF]

        (скачиваний: 3)
        Винсент. Нерассказанная история нашего дяди. Биография Винсента Ван Гога / Vincent - The Untold Story of our Uncle, a biography the life & times of Vincent van Gogh (2012) DVB [H.264] (Серии 1-7 из 7)

        (скачиваний: 3)